  0
SECTION
  2
HEADER
  9
$ACADVER
  1
AC1009
  9
$DWGCODEPAGE
  3
ansi_1252
  9
$INSBASE
 10
0.0
 20
0.0
 30
0.0
  9
$EXTMIN
 10
0.0
 20
0.0
 30
0.0
  9
$EXTMAX
 10
2100.0
 20
1485.0
 30
0.0
  9
$LIMMIN
 10
0.0
 20
0.0
  9
$LIMMAX
 10
2100.0
 20
1485.0
  9
$ORTHOMODE
 70
     0
  9
$REGENMODE
 70
     1
  9
$FILLMODE
 70
     1
  9
$QTEXTMODE
 70
     0
  9
$MIRRTEXT
 70
     1
  9
$DRAGMODE
 70
     2
  9
$LTSCALE
 40
5.0
  9
$OSMODE
 70
    37
  9
$ATTMODE
 70
     1
  9
$TEXTSIZE
 40
24.6944444444
  9
$TRACEWID
 40
1.0
  9
$TEXTSTYLE
  7
STANDARD
  9
$CLAYER
  8
0
  9
$CELTYPE
  6
BYLAYER
  9
$CECOLOR
 62
   256
  9
$DIMSCALE
 40
1.0
  9
$DIMASZ
 40
16.51
  9
$DIMEXO
 40
5.0
  9
$DIMDLI
 40
3.75
  9
$DIMRND
 40
0.0
  9
$DIMDLE
 40
0.0
  9
$DIMEXE
 40
5.0
  9
$DIMTP
 40
0.0
  9
$DIMTM
 40
0.0
  9
$DIMTXT
 40
24.6944444444
  9
$DIMCEN
 40
2.5
  9
$DIMTSZ
 40
0.0
  9
$DIMTOL
 70
     0
  9
$DIMLIM
 70
     0
  9
$DIMTIH
 70
     1
  9
$DIMTOH
 70
     1
  9
$DIMSE1
 70
     0
  9
$DIMSE2
 70
     0
  9
$DIMTAD
 70
     1
  9
$DIMZIN
 70
     0
  9
$DIMBLK
  1

  9
$DIMASO
 70
     1
  9
$DIMSHO
 70
     1
  9
$DIMPOST
  1

  9
$DIMAPOST
  1

  9
$DIMALT
 70
     0
  9
$DIMALTD
 70
     3
  9
$DIMALTF
 40
0.0393700787
  9
$DIMLFAC
 40
1.0
  9
$DIMTOFL
 70
     1
  9
$DIMTVP
 40
0.0
  9
$DIMTIX
 70
     0
  9
$DIMSOXD
 70
     0
  9
$DIMSAH
 70
     0
  9
$DIMBLK1
  1

  9
$DIMBLK2
  1

  9
$DIMSTYLE
  2
ISO-25
  9
$DIMCLRD
 70
     0
  9
$DIMCLRE
 70
     0
  9
$DIMCLRT
 70
     0
  9
$DIMTFAC
 40
1.0
  9
$DIMGAP
 40
12.5
  9
$LUNITS
 70
     2
  9
$LUPREC
 70
     2
  9
$SKETCHINC
 40
1.0
  9
$FILLETRAD
 40
10.0
  9
$AUNITS
 70
     0
  9
$AUPREC
 70
     2
  9
$MENU
  1
.
  9
$ELEVATION
 40
0.0
  9
$PELEVATION
 40
0.0
  9
$THICKNESS
 40
0.0
  9
$LIMCHECK
 70
     0
  9
$CHAMFERA
 40
0.0
  9
$CHAMFERB
 40
0.0
  9
$SKPOLY
 70
     0
  9
$TDCREATE
 40
2458572.710800509
  9
$TDUPDATE
 40
2458572.710815243
  9
$TDINDWG
 40
0.0000000116
  9
$TDUSRTIMER
 40
0.0000000116
  9
$USRTIMER
 70
     1
  9
$ANGBASE
 50
0.0
  9
$ANGDIR
 70
     0
  9
$PDMODE
 70
     0
  9
$PDSIZE
 40
-1.0
  9
$PLINEWID
 40
0.0
  9
$COORDS
 70
     1
  9
$SPLFRAME
 70
     0
  9
$SPLINETYPE
 70
     6
  9
$SPLINESEGS
 70
     8
  9
$ATTDIA
 70
     0
  9
$ATTREQ
 70
     1
  9
$HANDLING
 70
     1
  9
$HANDSEED
  5
39B
  9
$SURFTAB1
 70
     6
  9
$SURFTAB2
 70
     6
  9
$SURFTYPE
 70
     6
  9
$SURFU
 70
     6
  9
$SURFV
 70
     6
  9
$UCSNAME
  2

  9
$UCSORG
 10
0.0
 20
0.0
 30
0.0
  9
$UCSXDIR
 10
1.0
 20
0.0
 30
0.0
  9
$UCSYDIR
 10
0.0
 20
1.0
 30
0.0
  9
$PUCSNAME
  2

  9
$PUCSORG
 10
0.0
 20
0.0
 30
0.0
  9
$PUCSXDIR
 10
1.0
 20
0.0
 30
0.0
  9
$PUCSYDIR
 10
0.0
 20
1.0
 30
0.0
  9
$USERI1
 70
     0
  9
$USERI2
 70
     0
  9
$USERI3
 70
     0
  9
$USERI4
 70
     0
  9
$USERI5
 70
     0
  9
$USERR1
 40
0.0
  9
$USERR2
 40
0.0
  9
$USERR3
 40
0.0
  9
$USERR4
 40
0.0
  9
$USERR5
 40
0.0
  9
$WORLDVIEW
 70
     1
  9
$SHADEDGE
 70
     3
  9
$SHADEDIF
 70
    70
  9
$TILEMODE
 70
     1
  9
$MAXACTVP
 70
    64
  9
$PLIMCHECK
 70
     0
  9
$PEXTMIN
 10
1.0000000000E+20
 20
1.0000000000E+20
 30
1.0000000000E+20
  9
$PEXTMAX
 10
-1.0000000000E+20
 20
-1.0000000000E+20
 30
-1.0000000000E+20
  9
$PLIMMIN
 10
0.0
 20
0.0
  9
$PLIMMAX
 10
420.0
 20
297.0
  9
$UNITMODE
 70
     0
  9
$VISRETAIN
 70
     1
  9
$PLINEGEN
 70
     0
  9
$PSLTSCALE
 70
     1
  0
ENDSEC
  0
SECTION
  2
TABLES
  0
TABLE
  2
VPORT
 70
     1
  0
VPORT
  2
*ACTIVE
 70
     0
 10
0.0
 20
0.0
 11
1.0
 21
1.0
 12
1050.0
 22
742.5
 13
0.0
 23
0.0
 14
10.0
 24
10.0
 15
10.0
 25
10.0
 16
0.0
 26
0.0
 36
1.0
 17
0.0
 27
0.0
 37
0.0
 40
1485.0
 41
1.4141414141
 42
50.0
 43
0.0
 44
0.0
 50
0.0
 51
0.0
 71
     0
 72
  2000
 73
     1
 74
     3
 75
     0
 76
     0
 77
     0
 78
     0
  0
ENDTAB
  0
TABLE
  2
LTYPE
 70
     6
  0
LTYPE
  2
CONTINUOUS
 70
     0
  3
Solid line
 72
    65
 73
     0
 40
0.0
  0
LTYPE
  2
HIDDEN
 70
     0
  3
Hidden __ __ __ __ __ __ __ __ __ __ __ __ __ __
 72
    65
 73
     2
 40
1.905
 49
1.27
 49
-0.635
  0
LTYPE
  2
PHANTOM
 70
     0
  3
Phantom ______  __  __  ______  __  __  ______
 72
    65
 73
     6
 40
12.7
 49
6.35
 49
-1.27
 49
1.27
 49
-1.27
 49
1.27
 49
-1.27
  0
LTYPE
  2
CENTER
 70
     0
  3
Center ____ _ ____ _ ____ _ ____ _ ____ _ ____
 72
    65
 73
     4
 40
10.16
 49
6.35
 49
-1.27
 49
1.27
 49
-1.27
  0
LTYPE
  2
CENTERX2
 70
     0
  3
Center (2x) ________  __  ________  __  _____
 72
    65
 73
     4
 40
20.32
 49
12.7
 49
-2.54
 49
2.54
 49
-2.54
  0
LTYPE
  2
DOT2
 70
     0
  3
Dot (.5x) ........................................
 72
    65
 73
     2
 40
0.635
 49
0.0
 49
-0.635
  0
ENDTAB
  0
TABLE
  2
LAYER
 70
     9
  0
LAYER
  2
0
 70
     0
 62
     7
  6
CONTINUOUS
  0
LAYER
  2
VORLAGE_TEXT
 70
     0
 62
     7
  6
CONTINUOUS
  0
LAYER
  2
VORLAGE_BEMASSUNG
 70
     0
 62
    -5
  6
CONTINUOUS
  0
LAYER
  2
TEXT
 70
     0
 62
     7
  6
CONTINUOUS
  0
LAYER
  2
LINIEN-DICK
 70
     0
 62
     7
  6
CONTINUOUS
  0
LAYER
  2
LINIEN-NORMAL
 70
     0
 62
     7
  6
CONTINUOUS
  0
LAYER
  2
LINIEN-DÜNN
 70
     0
 62
     7
  6
CONTINUOUS
  0
LAYER
  2
TEXT-DEUTSCH
 70
     0
 62
     7
  6
CONTINUOUS
  0
LAYER
  2
TEXT-ENGLISCH
 70
     0
 62
     1
  6
CONTINUOUS
  0
ENDTAB
  0
TABLE
  2
STYLE
 70
     1
  0
STYLE
  2
STANDARD
 70
     0
 40
0.0
 41
1.0
 50
0.0
 71
     0
 42
24.6944444444
  3
txt
  4

  0
ENDTAB
  0
TABLE
  2
VIEW
 70
     0
  0
ENDTAB
  0
TABLE
  2
UCS
 70
     0
  0
ENDTAB
  0
TABLE
  2
APPID
 70
     1
  0
APPID
  2
ACAD
 70
     0
  0
ENDTAB
  0
TABLE
  2
DIMSTYLE
 70
     6
  0
DIMSTYLE
  2
ISO-25
 70
     0
  3

  4

  5

  6

  7

 40
1.0
 41
2.5
 42
0.625
 43
3.75
 44
1.25
 45
0.0
 46
0.0
 47
0.0
 48
0.0
140
2.5
141
2.5
142
0.0
143
0.0393700787
144
1.0
145
0.0
146
1.0
147
0.625
 71
     0
 72
     0
 73
     0
 74
     0
 75
     0
 76
     0
 77
     1
 78
     8
170
     0
171
     3
172
     1
173
     0
174
     0
175
     0
176
     0
177
     0
178
     0
  0
DIMSTYLE
  2
SLDDIMSTYLE0
 70
     0
  3

  4

  5

  6

  7

 40
1.0
 41
16.51
 42
0.0625
 43
0.38
 44
0.0
 45
0.000000001
 46
0.0
 47
0.0
 48
0.0
140
17.9782307943
141
0.09
142
0.0
143
25.4
144
1.0
145
0.0
146
1.0
147
4.4945576986
 71
     0
 72
     0
 73
     0
 74
     0
 75
     0
 76
     0
 77
     1
 78
    12
170
     0
171
     2
172
     0
173
     1
174
     0
175
     0
176
     0
177
     0
178
     0
  0
DIMSTYLE
  2
SLDDIMSTYLE1
 70
     0
  3

  4

  5

  6

  7

 40
1.0
 41
16.51
 42
0.0625
 43
0.38
 44
0.0
 45
0.000000001
 46
0.0
 47
0.0
 48
0.0
140
17.9782307943
141
0.09
142
0.0
143
25.4
144
1.0
145
0.0
146
1.0
147
4.4945576986
 71
     0
 72
     0
 73
     0
 74
     0
 75
     0
 76
     0
 77
     1
 78
    12
170
     0
171
     2
172
     1
173
     1
174
     0
175
     0
176
     0
177
     0
178
     0
  0
DIMSTYLE
  2
SLDDIMSTYLE2
 70
     0
  3

  4

  5

  6

  7

 40
1.0
 41
16.51
 42
0.0625
 43
0.38
 44
0.0
 45
0.000000001
 46
0.0
 47
0.0
 48
0.0
140
17.9782307943
141
0.09
142
0.0
143
25.4
144
1.0
145
0.0
146
1.0
147
4.4945576986
 71
     0
 72
     0
 73
     0
 74
     0
 75
     0
 76
     0
 77
     1
 78
    12
170
     0
171
     2
172
     0
173
     1
174
     0
175
     0
176
     0
177
     0
178
     0
  0
DIMSTYLE
  2
SLDDIMSTYLE3
 70
     0
  3

  4

  5

  6

  7

 40
1.0
 41
16.51
 42
0.0625
 43
0.38
 44
0.0
 45
0.000000001
 46
0.0
 47
0.0
 48
0.0
140
17.9782307943
141
0.09
142
0.0
143
25.4
144
0.2
145
0.0
146
1.0
147
4.4945576986
 71
     0
 72
     0
 73
     0
 74
     0
 75
     0
 76
     0
 77
     1
 78
    12
170
     0
171
     2
172
     0
173
     1
174
     0
175
     0
176
     0
177
     0
178
     0
  0
DIMSTYLE
  2
SLDDIMSTYLE4
 70
     0
  3

  4

  5

  6

  7

 40
1.0
 41
16.51
 42
0.0625
 43
0.38
 44
0.0
 45
0.000000001
 46
0.0
 47
0.0
 48
0.0
140
17.9782307943
141
0.09
142
0.0
143
25.4
144
0.2
145
0.0
146
1.0
147
4.4945576986
 71
     0
 72
     0
 73
     0
 74
     0
 75
     0
 76
     0
 77
     1
 78
    12
170
     0
171
     2
172
     1
173
     1
174
     0
175
     0
176
     0
177
     0
178
     0
  0
ENDTAB
  0
ENDSEC
  0
SECTION
  2
BLOCKS
  0
BLOCK
  8
0
  2
$MODEL_SPACE
 70
     0
 10
0.0
 20
0.0
 30
0.0
  3
$MODEL_SPACE
  1

  0
ENDBLK
  5
21
  8
0
  0
BLOCK
 67
     1
  8
0
  2
$PAPER_SPACE
 70
     0
 10
0.0
 20
0.0
 30
0.0
  3
$PAPER_SPACE
  1

  0
ENDBLK
  5
1D
 67
     1
  8
0
  0
BLOCK
  8
0
  2
ANTRIEB_MIT_MOTOR
 70
     0
 10
0.0
 20
0.0
 30
0.0
  3
ANTRIEB_MIT_MOTOR
  1

  0
TEXT
  5
7E
  8
0
  6
CONTINUOUS
 62
     7
 10
0.4130373801
 20
280399.4662167331
 30
0.0
 40
793750.0
  1
Antrieb mit Motor
 41
0.4611764706
 11
0.4130373801
 21
-0.7079318737
 31
0.0
 73
     1
  0
ENDBLK
  5
7D
  8
0
  0
BLOCK
  8
0
  2
SW_NOTE_7
 70
     0
 10
0.0
 20
0.0
 30
0.0
  3
SW_NOTE_7
  1

  0
TEXT
  5
DD
  8
0
  6
CONTINUOUS
 62
     0
 10
-5.2989009288
 20
0.0
 30
0.0
 40
15.0
  1
©
 50
90.0
 41
0.7
 11
0.0
 21
0.0
 31
0.0
 73
     1
  0
TEXT
  5
DE
  8
0
  6
CONTINUOUS
 62
     0
 10
-4.9770449706
 20
15.1874998119
 30
0.0
 40
10.0
  1
 2017 Stobag, CH-5630 Muri, Switzerland
 50
90.0
 41
0.6551282051
 11
-1.4444443514
 21
15.1874998119
 31
0.0
 73
     1
  0
ENDBLK
  5
DC
  8
0
  0
BLOCK
  8
0
  2
SW_NOTE_8
 70
     0
 10
0.0
 20
0.0
 30
0.0
  3
SW_NOTE_8
  1

  0
TEXT
  5
EC
  8
0
  6
CONTINUOUS
 62
     0
 10
-3.1793405573
 20
0.0
 30
0.0
 40
9.0
  1
Dieses Dokument ist unser geistiges Eigentum. Es darf ohne unsere ausdrückliche Genehmigung weder kopiert, vervielfältigt oder 
 50
90.0
 41
0.6559055118
 11
0.0
 21
0.0
 31
0.0
 73
     1
  0
TEXT
  5
ED
  8
0
  6
CONTINUOUS
 62
     0
 10
8.4456594856
 20
0.0
 30
0.0
 40
9.0
  1
verwertet, noch an Dritte weitergegeben werden. Zuwiderhandlung ist strafbar und wird strafrechtlich verfolgt.
 50
90.0
 41
0.6618181818
 11
11.6250000428
 21
0.0
 31
0.0
 73
     1
  0
ENDBLK
  5
EB
  8
0
  0
BLOCK
  8
0
  2
SW_NOTE_9
 70
     0
 10
0.0
 20
0.0
 30
0.0
  3
SW_NOTE_9
  1

  0
TEXT
  5
F2
  8
0
  6
CONTINUOUS
 62
     0
 10
-3.1793405573
 20
0.0
 30
0.0
 40
9.0
  1
We reserve all rights in this document and the information contained therein.
 50
90.0
 41
0.65
 11
0.0
 21
0.0
 31
0.0
 73
     1
  0
TEXT
  5
F3
  8
0
  6
CONTINUOUS
 62
     0
 10
8.4456594856
 20
0.0
 30
0.0
 40
9.0
  1
Reproduction, use or disclosure to third parties without express authority is strictly forbidden.
 50
90.0
 41
0.6567010309
 11
11.6250000428
 21
0.0
 31
0.0
 73
     1
  0
ENDBLK
  5
F1
  8
0
  0
BLOCK
  8
0
  2
_D
 70
     0
 10
0.0
 20
0.0
 30
0.0
  3
_D
  1

  0
SOLID
  5
1C8
  8
0
  6
CONTINUOUS
 62
     7
 10
192.4493243243
 20
487.2432432432
 30
0.0
 11
189.9493243243
 21
470.7332432432
 31
0.0
 12
194.9493243243
 22
470.7332432432
 32
0.0
 13
194.9493243243
 23
470.7332432432
 33
0.0
  0
SOLID
  5
1C9
  8
0
  6
CONTINUOUS
 62
     7
 10
192.4493243243
 20
335.2432432432
 30
0.0
 11
194.9493243243
 21
351.7532432432
 31
0.0
 12
189.9493243243
 22
351.7532432432
 32
0.0
 13
189.9493243243
 23
351.7532432432
 33
0.0
  0
LINE
  5
1CA
  8
0
  6
CONTINUOUS
 62
     7
 10
255.4493243243
 20
487.2432432432
 30
0.0
 11
187.4493243243
 21
487.2432432432
 31
0.0
  0
LINE
  5
1CB
  8
0
  6
CONTINUOUS
 62
     7
 10
237.4493243243
 20
335.2432432432
 30
0.0
 11
187.4493243243
 21
335.2432432432
 31
0.0
  0
LINE
  5
1CC
  8
0
  6
CONTINUOUS
 62
     7
 10
192.4493243243
 20
487.2432432432
 30
0.0
 11
192.4493243243
 21
335.2432432432
 31
0.0
  0
TEXT
  5
1CD
  8
0
  6
CONTINUOUS
 62
     7
 10
185.9066535942
 20
390.6645394002
 30
0.0
 40
18.5208333333
  1
150
 50
90.0
 41
0.7
 11
192.4493243243
 21
390.6645394002
 31
0.0
 73
     1
  0
ENDBLK
  5
1C7
  8
0
  0
BLOCK
  8
0
  2
_D_1
 70
     0
 10
0.0
 20
0.0
 30
0.0
  3
_D_1
  1

  0
SOLID
  5
1D2
  8
0
  6
CONTINUOUS
 62
     7
 10
192.4493243243
 20
1045.2432432432
 30
0.0
 11
194.9493243243
 21
1061.7532432432
 31
0.0
 12
189.9493243243
 22
1061.7532432432
 32
0.0
 13
189.9493243243
 23
1061.7532432432
 33
0.0
  0
SOLID
  5
1D3
  8
0
  6
CONTINUOUS
 62
     7
 10
192.4493243243
 20
1195.2432432432
 30
0.0
 11
189.9493243243
 21
1178.7332432432
 31
0.0
 12
194.9493243243
 22
1178.7332432432
 32
0.0
 13
194.9493243243
 23
1178.7332432432
 33
0.0
  0
LINE
  5
1D4
  8
0
  6
CONTINUOUS
 62
     7
 10
255.4493243243
 20
1045.2432432432
 30
0.0
 11
187.4493243243
 21
1045.2432432432
 31
0.0
  0
LINE
  5
1D5
  8
0
  6
CONTINUOUS
 62
     7
 10
237.4493243243
 20
1195.2432432432
 30
0.0
 11
187.4493243243
 21
1195.2432432432
 31
0.0
  0
LINE
  5
1D6
  8
0
  6
CONTINUOUS
 62
     7
 10
192.4493243243
 20
1045.2432432432
 30
0.0
 11
192.4493243243
 21
1195.2432432432
 31
0.0
  0
TEXT
  5
1D7
  8
0
  6
CONTINUOUS
 62
     7
 10
185.9066535942
 20
1099.6645394002
 30
0.0
 40
18.5208333333
  1
150
 50
90.0
 41
0.7
 11
192.4493243243
 21
1099.6645394002
 31
0.0
 73
     1
  0
ENDBLK
  5
1D1
  8
0
  0
BLOCK
  8
0
  2
_D_2
 70
     0
 10
0.0
 20
0.0
 30
0.0
  3
_D_2
  1

  0
SOLID
  5
1DC
  8
0
  6
CONTINUOUS
 62
     7
 10
192.4493243243
 20
1045.2432432432
 30
0.0
 11
189.9493243243
 21
1028.7332432432
 31
0.0
 12
194.9493243243
 22
1028.7332432432
 32
0.0
 13
194.9493243243
 23
1028.7332432432
 33
0.0
  0
SOLID
  5
1DD
  8
0
  6
CONTINUOUS
 62
     7
 10
192.4493243243
 20
487.2432432432
 30
0.0
 11
194.9493243243
 21
503.7532432432
 31
0.0
 12
189.9493243243
 22
503.7532432432
 32
0.0
 13
189.9493243243
 23
503.7532432432
 33
0.0
  0
LINE
  5
1DE
  8
0
  6
CONTINUOUS
 62
     7
 10
255.4493243243
 20
1045.2432432432
 30
0.0
 11
187.4493243243
 21
1045.2432432432
 31
0.0
  0
LINE
  5
1DF
  8
0
  6
CONTINUOUS
 62
     7
 10
255.4493243243
 20
487.2432432432
 30
0.0
 11
187.4493243243
 21
487.2432432432
 31
0.0
  0
LINE
  5
1E0
  8
0
  6
CONTINUOUS
 62
     7
 10
192.4493243243
 20
1045.2432432432
 30
0.0
 11
192.4493243243
 21
487.2432432432
 31
0.0
  0
TEXT
  5
1E1
  8
0
  6
CONTINUOUS
 62
     7
 10
185.9066535942
 20
758.0117614732
 30
0.0
 40
18.5208333333
  1
X
 50
90.0
 41
0.7
 11
192.4493243243
 21
758.0117614732
 31
0.0
 73
     1
  0
ENDBLK
  5
1DB
  8
0
  0
BLOCK
  8
0
  2
_D_3
 70
     0
 10
0.0
 20
0.0
 30
0.0
  3
_D_3
  1

  0
SOLID
  5
1E7
  8
0
  6
CONTINUOUS
 62
     7
 10
242.4493243243
 20
285.2432432432
 30
0.0
 11
225.9393243243
 21
287.7432432432
 31
0.0
 12
225.9393243243
 22
282.7432432432
 32
0.0
 13
225.9393243243
 23
282.7432432432
 33
0.0
  0
SOLID
  5
1E8
  8
0
  6
CONTINUOUS
 62
     7
 10
277.4493243243
 20
285.2432432432
 30
0.0
 11
293.9593243243
 21
282.7432432432
 31
0.0
 12
293.9593243243
 22
287.7432432432
 32
0.0
 13
293.9593243243
 23
287.7432432432
 33
0.0
  0
LINE
  5
1E9
  8
0
  6
CONTINUOUS
 62
     7
 10
242.4493243243
 20
332.2432432432
 30
0.0
 11
242.4493243243
 21
280.2432432432
 31
0.0
  0
LINE
  5
1EA
  8
0
  6
CONTINUOUS
 62
     7
 10
277.4493243243
 20
332.2432432432
 30
0.0
 11
277.4493243243
 21
280.2432432432
 31
0.0
  0
LINE
  5
1EB
  8
0
  6
CONTINUOUS
 62
     7
 10
242.4493243243
 20
285.2432432432
 30
0.0
 11
210.6993243243
 21
285.2432432432
 31
0.0
  0
LINE
  5
1EC
  8
0
  6
CONTINUOUS
 62
     7
 10
242.4493243243
 20
285.2432432432
 30
0.0
 11
277.4493243243
 21
285.2432432432
 31
0.0
  0
LINE
  5
1ED
  8
0
  6
CONTINUOUS
 62
     7
 10
277.4493243243
 20
285.2432432432
 30
0.0
 11
309.1993243243
 21
285.2432432432
 31
0.0
  0
TEXT
  5
1EE
  8
0
  6
CONTINUOUS
 62
     7
 10
246.2301884289
 20
291.7859139734
 30
57.5
 40
18.5208333333
  1
35
 50
360.0
 41
0.7
 11
246.2301884289
 21
285.2432432432
 31
57.5
 73
     1
  0
ENDBLK
  5
1E6
  8
0
  0
BLOCK
  8
0
  2
_D_4
 70
     0
 10
0.0
 20
0.0
 30
0.0
  3
_D_4
  1

  0
SOLID
  5
1F3
  8
0
  6
CONTINUOUS
 62
     7
 10
1207.4493243243
 20
285.2432432432
 30
0.0
 11
1190.9393243243
 21
287.7432432432
 31
0.0
 12
1190.9393243243
 22
282.7432432432
 32
0.0
 13
1190.9393243243
 23
282.7432432432
 33
0.0
  0
SOLID
  5
1F4
  8
0
  6
CONTINUOUS
 62
     7
 10
1242.4493243243
 20
285.2432432432
 30
0.0
 11
1258.9593243243
 21
282.7432432432
 31
0.0
 12
1258.9593243243
 22
287.7432432432
 32
0.0
 13
1258.9593243243
 23
287.7432432432
 33
0.0
  0
LINE
  5
1F5
  8
0
  6
CONTINUOUS
 62
     7
 10
1207.4493243243
 20
332.2432432432
 30
0.0
 11
1207.4493243243
 21
280.2432432432
 31
0.0
  0
LINE
  5
1F6
  8
0
  6
CONTINUOUS
 62
     7
 10
1242.4493243243
 20
332.2432432432
 30
0.0
 11
1242.4493243243
 21
280.2432432432
 31
0.0
  0
LINE
  5
1F7
  8
0
  6
CONTINUOUS
 62
     7
 10
1207.4493243243
 20
285.2432432432
 30
0.0
 11
1175.6993243243
 21
285.2432432432
 31
0.0
  0
LINE
  5
1F8
  8
0
  6
CONTINUOUS
 62
     7
 10
1207.4493243243
 20
285.2432432432
 30
0.0
 11
1242.4493243243
 21
285.2432432432
 31
0.0
  0
LINE
  5
1F9
  8
0
  6
CONTINUOUS
 62
     7
 10
1242.4493243243
 20
285.2432432432
 30
0.0
 11
1274.1993243243
 21
285.2432432432
 31
0.0
  0
TEXT
  5
1FA
  8
0
  6
CONTINUOUS
 62
     7
 10
1211.230188429
 20
291.7859139734
 30
57.5
 40
18.5208333333
  1
35
 41
0.7
 11
1211.230188429
 21
285.2432432432
 31
57.5
 73
     1
  0
ENDBLK
  5
1F2
  8
0
  0
BLOCK
  8
0
  2
_D_5
 70
     0
 10
0.0
 20
0.0
 30
0.0
  3
_D_5
  1

  0
SOLID
  5
1FF
  8
0
  6
CONTINUOUS
 62
     7
 10
242.4493243243
 20
1385.4932432432
 30
0.0
 11
258.9593243243
 21
1382.9932432432
 31
0.0
 12
258.9593243243
 22
1387.9932432432
 32
0.0
 13
258.9593243243
 23
1387.9932432432
 33
0.0
  0
SOLID
  5
200
  8
0
  6
CONTINUOUS
 62
     7
 10
1242.4493243243
 20
1385.4932432432
 30
0.0
 11
1225.9393243243
 21
1387.9932432432
 31
0.0
 12
1225.9393243243
 22
1382.9932432432
 32
0.0
 13
1225.9393243243
 23
1382.9932432432
 33
0.0
  0
LINE
  5
201
  8
0
  6
CONTINUOUS
 62
     7
 10
242.4493243243
 20
1338.4405733924
 30
0.0
 11
242.4493243243
 21
1390.4932432432
 31
0.0
  0
LINE
  5
202
  8
0
  6
CONTINUOUS
 62
     7
 10
1242.4493243243
 20
1338.4405733924
 30
0.0
 11
1242.4493243243
 21
1390.4932432432
 31
0.0
  0
LINE
  5
203
  8
0
  6
CONTINUOUS
 62
     7
 10
242.4493243243
 20
1385.4932432432
 30
0.0
 11
1242.4493243243
 21
1385.4932432432
 31
0.0
  0
TEXT
  5
204
  8
0
  6
CONTINUOUS
 62
     7
 10
734.2178425543
 20
1392.0359139734
 30
57.5
 40
18.5208333333
  1
B
 41
0.7
 11
734.2178425543
 21
1385.4932432432
 31
57.5
 73
     1
  0
ENDBLK
  5
1FE
  8
0
  0
BLOCK
  8
0
  2
SW_CENTERMARKSYMBOL_6
 70
     0
 10
0.0
 20
0.0
 30
0.0
  3
SW_CENTERMARKSYMBOL_6
  1

  0
LINE
  5
208
  8
0
  6
CONTINUOUS
 62
     0
 10
0.0
 20
0.0
 30
0.0
 11
0.0
 21
-2.5
 31
0.0
  0
LINE
  5
209
  8
0
  6
CONTINUOUS
 62
     0
 10
0.0
 20
0.0
 30
0.0
 11
2.5
 21
0.0
 31
0.0
  0
LINE
  5
20A
  8
0
  6
CONTINUOUS
 62
     0
 10
0.0
 20
0.0
 30
0.0
 11
0.0
 21
2.5
 31
0.0
  0
LINE
  5
20B
  8
0
  6
CONTINUOUS
 62
     0
 10
0.0
 20
0.0
 30
0.0
 11
-2.5
 21
0.0
 31
0.0
  0
LINE
  5
20C
  8
0
  6
CONTINUOUS
 62
     0
 10
0.0
 20
-5.0
 30
0.0
 11
0.0
 21
-6.5
 31
0.0
  0
LINE
  5
20D
  8
0
  6
CONTINUOUS
 62
     0
 10
5.0
 20
0.0
 30
0.0
 11
6.5
 21
0.0
 31
0.0
  0
LINE
  5
20E
  8
0
  6
CONTINUOUS
 62
     0
 10
0.0
 20
5.0
 30
0.0
 11
0.0
 21
6.5
 31
0.0
  0
LINE
  5
20F
  8
0
  6
CONTINUOUS
 62
     0
 10
-5.0
 20
0.0
 30
0.0
 11
-6.5
 21
0.0
 31
0.0
  0
LINE
  5
210
  8
0
  6
CONTINUOUS
 62
     0
 10
0.0
 20
-12.0
 30
0.0
 11
0.0
 21
-14.5
 31
0.0
  0
LINE
  5
211
  8
0
  6
CONTINUOUS
 62
     0
 10
0.0
 20
-12.0
 30
0.0
 11
2.5
 21
-12.0
 31
0.0
  0
LINE
  5
212
  8
0
  6
CONTINUOUS
 62
     0
 10
0.0
 20
-12.0
 30
0.0
 11
0.0
 21
-9.5
 31
0.0
  0
LINE
  5
213
  8
0
  6
CONTINUOUS
 62
     0
 10
0.0
 20
-12.0
 30
0.0
 11
-2.5
 21
-12.0
 31
0.0
  0
LINE
  5
214
  8
0
  6
CONTINUOUS
 62
     0
 10
0.0
 20
-17.0
 30
0.0
 11
0.0
 21
-18.5
 31
0.0
  0
LINE
  5
215
  8
0
  6
CONTINUOUS
 62
     0
 10
5.0
 20
-12.0
 30
0.0
 11
6.5
 21
-12.0
 31
0.0
  0
LINE
  5
216
  8
0
  6
CONTINUOUS
 62
     0
 10
0.0
 20
-7.0
 30
0.0
 11
0.0
 21
-5.5
 31
0.0
  0
LINE
  5
217
  8
0
  6
CONTINUOUS
 62
     0
 10
-5.0
 20
-12.0
 30
0.0
 11
-6.5
 21
-12.0
 31
0.0
  0
ENDBLK
  5
207
  8
0
  0
BLOCK
  8
0
  2
SW_CENTERMARKSYMBOL_7
 70
     0
 10
0.0
 20
0.0
 30
0.0
  3
SW_CENTERMARKSYMBOL_7
  1

  0
LINE
  5
21C
  8
0
  6
CONTINUOUS
 62
     0
 10
0.0
 20
0.0
 30
0.0
 11
0.0
 21
2.5
 31
0.0
  0
LINE
  5
21D
  8
0
  6
CONTINUOUS
 62
     0
 10
0.0
 20
0.0
 30
0.0
 11
-2.5
 21
0.0
 31
0.0
  0
LINE
  5
21E
  8
0
  6
CONTINUOUS
 62
     0
 10
0.0
 20
0.0
 30
0.0
 11
0.0
 21
-2.5
 31
0.0
  0
LINE
  5
21F
  8
0
  6
CONTINUOUS
 62
     0
 10
0.0
 20
0.0
 30
0.0
 11
2.5
 21
0.0
 31
0.0
  0
LINE
  5
220
  8
0
  6
CONTINUOUS
 62
     0
 10
0.0
 20
5.0
 30
0.0
 11
0.0
 21
6.5
 31
0.0
  0
LINE
  5
221
  8
0
  6
CONTINUOUS
 62
     0
 10
-5.0
 20
0.0
 30
0.0
 11
-6.5
 21
0.0
 31
0.0
  0
LINE
  5
222
  8
0
  6
CONTINUOUS
 62
     0
 10
0.0
 20
-5.0
 30
0.0
 11
0.0
 21
-6.5
 31
0.0
  0
LINE
  5
223
  8
0
  6
CONTINUOUS
 62
     0
 10
5.0
 20
0.0
 30
0.0
 11
6.5
 21
0.0
 31
0.0
  0
LINE
  5
224
  8
0
  6
CONTINUOUS
 62
     0
 10
0.0
 20
12.0
 30
0.0
 11
0.0
 21
14.5
 31
0.0
  0
LINE
  5
225
  8
0
  6
CONTINUOUS
 62
     0
 10
0.0
 20
12.0
 30
0.0
 11
-2.5
 21
12.0
 31
0.0
  0
LINE
  5
226
  8
0
  6
CONTINUOUS
 62
     0
 10
0.0
 20
12.0
 30
0.0
 11
0.0
 21
9.5
 31
0.0
  0
LINE
  5
227
  8
0
  6
CONTINUOUS
 62
     0
 10
0.0
 20
12.0
 30
0.0
 11
2.5
 21
12.0
 31
0.0
  0
LINE
  5
228
  8
0
  6
CONTINUOUS
 62
     0
 10
0.0
 20
17.0
 30
0.0
 11
0.0
 21
18.5
 31
0.0
  0
LINE
  5
229
  8
0
  6
CONTINUOUS
 62
     0
 10
-5.0
 20
12.0
 30
0.0
 11
-6.5
 21
12.0
 31
0.0
  0
LINE
  5
22A
  8
0
  6
CONTINUOUS
 62
     0
 10
0.0
 20
7.0
 30
0.0
 11
0.0
 21
5.5
 31
0.0
  0
LINE
  5
22B
  8
0
  6
CONTINUOUS
 62
     0
 10
5.0
 20
12.0
 30
0.0
 11
6.5
 21
12.0
 31
0.0
  0
ENDBLK
  5
21B
  8
0
  0
BLOCK
  8
0
  2
SW_CENTERMARKSYMBOL_8
 70
     0
 10
0.0
 20
0.0
 30
0.0
  3
SW_CENTERMARKSYMBOL_8
  1

  0
LINE
  5
230
  8
0
  6
CONTINUOUS
 62
     0
 10
0.0
 20
0.0
 30
0.0
 11
0.0
 21
-2.5
 31
0.0
  0
LINE
  5
231
  8
0
  6
CONTINUOUS
 62
     0
 10
0.0
 20
0.0
 30
0.0
 11
2.5
 21
0.0
 31
0.0
  0
LINE
  5
232
  8
0
  6
CONTINUOUS
 62
     0
 10
0.0
 20
0.0
 30
0.0
 11
0.0
 21
2.5
 31
0.0
  0
LINE
  5
233
  8
0
  6
CONTINUOUS
 62
     0
 10
0.0
 20
0.0
 30
0.0
 11
-2.5
 21
0.0
 31
0.0
  0
LINE
  5
234
  8
0
  6
CONTINUOUS
 62
     0
 10
0.0
 20
-5.0
 30
0.0
 11
0.0
 21
-6.5
 31
0.0
  0
LINE
  5
235
  8
0
  6
CONTINUOUS
 62
     0
 10
5.0
 20
0.0
 30
0.0
 11
6.5
 21
0.0
 31
0.0
  0
LINE
  5
236
  8
0
  6
CONTINUOUS
 62
     0
 10
0.0
 20
5.0
 30
0.0
 11
0.0
 21
6.5
 31
0.0
  0
LINE
  5
237
  8
0
  6
CONTINUOUS
 62
     0
 10
-5.0
 20
0.0
 30
0.0
 11
-6.5
 21
0.0
 31
0.0
  0
LINE
  5
238
  8
0
  6
CONTINUOUS
 62
     0
 10
0.0
 20
-12.0
 30
0.0
 11
0.0
 21
-14.5
 31
0.0
  0
LINE
  5
239
  8
0
  6
CONTINUOUS
 62
     0
 10
0.0
 20
-12.0
 30
0.0
 11
2.5
 21
-12.0
 31
0.0
  0
LINE
  5
23A
  8
0
  6
CONTINUOUS
 62
     0
 10
0.0
 20
-12.0
 30
0.0
 11
0.0
 21
-9.5
 31
0.0
  0
LINE
  5
23B
  8
0
  6
CONTINUOUS
 62
     0
 10
0.0
 20
-12.0
 30
0.0
 11
-2.5
 21
-12.0
 31
0.0
  0
LINE
  5
23C
  8
0
  6
CONTINUOUS
 62
     0
 10
0.0
 20
-17.0
 30
0.0
 11
0.0
 21
-18.5
 31
0.0
  0
LINE
  5
23D
  8
0
  6
CONTINUOUS
 62
     0
 10
5.0
 20
-12.0
 30
0.0
 11
6.5
 21
-12.0
 31
0.0
  0
LINE
  5
23E
  8
0
  6
CONTINUOUS
 62
     0
 10
0.0
 20
-7.0
 30
0.0
 11
0.0
 21
-5.5
 31
0.0
  0
LINE
  5
23F
  8
0
  6
CONTINUOUS
 62
     0
 10
-5.0
 20
-12.0
 30
0.0
 11
-6.5
 21
-12.0
 31
0.0
  0
ENDBLK
  5
22F
  8
0
  0
BLOCK
  8
0
  2
SW_CENTERMARKSYMBOL_9
 70
     0
 10
0.0
 20
0.0
 30
0.0
  3
SW_CENTERMARKSYMBOL_9
  1

  0
LINE
  5
244
  8
0
  6
CONTINUOUS
 62
     0
 10
0.0
 20
0.0
 30
0.0
 11
0.0
 21
-2.5
 31
0.0
  0
LINE
  5
245
  8
0
  6
CONTINUOUS
 62
     0
 10
0.0
 20
0.0
 30
0.0
 11
2.5
 21
0.0
 31
0.0
  0
LINE
  5
246
  8
0
  6
CONTINUOUS
 62
     0
 10
0.0
 20
0.0
 30
0.0
 11
0.0
 21
2.5
 31
0.0
  0
LINE
  5
247
  8
0
  6
CONTINUOUS
 62
     0
 10
0.0
 20
0.0
 30
0.0
 11
-2.5
 21
0.0
 31
0.0
  0
LINE
  5
248
  8
0
  6
CONTINUOUS
 62
     0
 10
0.0
 20
-5.0
 30
0.0
 11
0.0
 21
-6.5
 31
0.0
  0
LINE
  5
249
  8
0
  6
CONTINUOUS
 62
     0
 10
5.0
 20
0.0
 30
0.0
 11
6.5
 21
0.0
 31
0.0
  0
LINE
  5
24A
  8
0
  6
CONTINUOUS
 62
     0
 10
0.0
 20
5.0
 30
0.0
 11
0.0
 21
6.5
 31
0.0
  0
LINE
  5
24B
  8
0
  6
CONTINUOUS
 62
     0
 10
-5.0
 20
0.0
 30
0.0
 11
-6.5
 21
0.0
 31
0.0
  0
LINE
  5
24C
  8
0
  6
CONTINUOUS
 62
     0
 10
0.0
 20
-12.0
 30
0.0
 11
0.0
 21
-14.5
 31
0.0
  0
LINE
  5
24D
  8
0
  6
CONTINUOUS
 62
     0
 10
0.0
 20
-12.0
 30
0.0
 11
2.5
 21
-12.0
 31
0.0
  0
LINE
  5
24E
  8
0
  6
CONTINUOUS
 62
     0
 10
0.0
 20
-12.0
 30
0.0
 11
0.0
 21
-9.5
 31
0.0
  0
LINE
  5
24F
  8
0
  6
CONTINUOUS
 62
     0
 10
0.0
 20
-12.0
 30
0.0
 11
-2.5
 21
-12.0
 31
0.0
  0
LINE
  5
250
  8
0
  6
CONTINUOUS
 62
     0
 10
0.0
 20
-17.0
 30
0.0
 11
0.0
 21
-18.5
 31
0.0
  0
LINE
  5
251
  8
0
  6
CONTINUOUS
 62
     0
 10
5.0
 20
-12.0
 30
0.0
 11
6.5
 21
-12.0
 31
0.0
  0
LINE
  5
252
  8
0
  6
CONTINUOUS
 62
     0
 10
0.0
 20
-7.0
 30
0.0
 11
0.0
 21
-5.5
 31
0.0
  0
LINE
  5
253
  8
0
  6
CONTINUOUS
 62
     0
 10
-5.0
 20
-12.0
 30
0.0
 11
-6.5
 21
-12.0
 31
0.0
  0
ENDBLK
  5
243
  8
0
  0
BLOCK
  8
0
  2
_D_6
 70
     0
 10
0.0
 20
0.0
 30
0.0
  3
_D_6
  1

  0
SOLID
  5
2F4
  8
0
  6
CONTINUOUS
 62
     7
 10
1687.1047297297
 20
285.2432432432
 30
0.0
 11
1670.5947297297
 21
287.7432432432
 31
0.0
 12
1670.5947297297
 22
282.7432432432
 32
0.0
 13
1670.5947297297
 23
282.7432432432
 33
0.0
  0
SOLID
  5
2F5
  8
0
  6
CONTINUOUS
 62
     7
 10
1743.1047297297
 20
285.2432432432
 30
0.0
 11
1759.6147297297
 21
282.7432432432
 31
0.0
 12
1759.6147297297
 22
287.7432432432
 32
0.0
 13
1759.6147297297
 23
287.7432432432
 33
0.0
  0
LINE
  5
2F6
  8
0
  6
CONTINUOUS
 62
     7
 10
1687.1047297297
 20
332.2432432432
 30
0.0
 11
1687.1047297297
 21
280.2432432432
 31
0.0
  0
LINE
  5
2F7
  8
0
  6
CONTINUOUS
 62
     7
 10
1743.1047297297
 20
332.2432432432
 30
0.0
 11
1743.1047297297
 21
280.2432432432
 31
0.0
  0
LINE
  5
2F8
  8
0
  6
CONTINUOUS
 62
     7
 10
1687.1047297297
 20
285.2432432432
 30
0.0
 11
1655.3547297297
 21
285.2432432432
 31
0.0
  0
LINE
  5
2F9
  8
0
  6
CONTINUOUS
 62
     7
 10
1687.1047297297
 20
285.2432432432
 30
0.0
 11
1743.1047297297
 21
285.2432432432
 31
0.0
  0
LINE
  5
2FA
  8
0
  6
CONTINUOUS
 62
     7
 10
1743.1047297297
 20
285.2432432432
 30
0.0
 11
1774.8547297297
 21
285.2432432432
 31
0.0
  0
TEXT
  5
2FB
  8
0
  6
CONTINUOUS
 62
     7
 10
1701.3855938343
 20
291.7859139734
 30
0.0
 40
18.5208333333
  1
56
 50
0.0
 41
0.7
 11
1701.3855938343
 21
285.2432432432
 31
0.0
 73
     1
  0
ENDBLK
  5
2F3
  8
0
  0
BLOCK
  8
0
  2
_D_7
 70
     0
 10
0.0
 20
0.0
 30
0.0
  3
_D_7
  1

  0
SOLID
  5
300
  8
0
  6
CONTINUOUS
 62
     7
 10
1823.3547297297
 20
1335.4932432432
 30
0.0
 11
1820.8547297297
 21
1318.9832432432
 31
0.0
 12
1825.8547297297
 22
1318.9832432432
 32
0.0
 13
1825.8547297297
 23
1318.9832432432
 33
0.0
  0
SOLID
  5
301
  8
0
  6
CONTINUOUS
 62
     7
 10
1823.3547297297
 20
335.2432432432
 30
0.0
 11
1825.8547297297
 21
351.7532432432
 31
0.0
 12
1820.8547297297
 22
351.7532432432
 32
0.0
 13
1820.8547297297
 23
351.7532432432
 33
0.0
  0
LINE
  5
302
  8
0
  6
CONTINUOUS
 62
     7
 10
1747.8547487682
 20
1335.4932432432
 30
0.0
 11
1828.3547297297
 21
1335.4932432432
 31
0.0
  0
LINE
  5
303
  8
0
  6
CONTINUOUS
 62
     7
 10
1748.1047297297
 20
335.2432432432
 30
0.0
 11
1828.3547297297
 21
335.2432432432
 31
0.0
  0
LINE
  5
304
  8
0
  6
CONTINUOUS
 62
     7
 10
1823.3547297297
 20
1335.4932432432
 30
0.0
 11
1823.3547297297
 21
335.2432432432
 31
0.0
  0
TEXT
  5
305
  8
0
  6
CONTINUOUS
 62
     7
 10
1816.8120589996
 20
826.4508051441
 30
0.0
 40
18.5208333333
  1
H
 50
90.0
 41
0.7
 11
1823.3547297297
 21
826.4508051441
 31
0.0
 73
     1
  0
ENDBLK
  5
2FF
  8
0
  0
BLOCK
  8
0
  2
_D_8
 70
     0
 10
0.0
 20
0.0
 30
0.0
  3
_D_8
  1

  0
SOLID
  5
30B
  8
0
  6
CONTINUOUS
 62
     7
 10
1627.8547297297
 20
1385.4932432432
 30
0.0
 11
1644.3647297297
 21
1382.9932432432
 31
0.0
 12
1644.3647297297
 22
1387.9932432432
 32
0.0
 13
1644.3647297297
 23
1387.9932432432
 33
0.0
  0
SOLID
  5
30C
  8
0
  6
CONTINUOUS
 62
     7
 10
1743.3547297297
 20
1385.4932432432
 30
0.0
 11
1726.8447297297
 21
1387.9932432432
 31
0.0
 12
1726.8447297297
 22
1382.9932432432
 32
0.0
 13
1726.8447297297
 23
1382.9932432432
 33
0.0
  0
LINE
  5
30D
  8
0
  6
CONTINUOUS
 62
     7
 10
1627.8547297297
 20
1339.9932622817
 30
0.0
 11
1627.8547297297
 21
1390.4932432432
 31
0.0
  0
LINE
  5
30E
  8
0
  6
CONTINUOUS
 62
     7
 10
1743.3547297297
 20
1339.9932622817
 30
0.0
 11
1743.3547297297
 21
1390.4932432432
 31
0.0
  0
LINE
  5
30F
  8
0
  6
CONTINUOUS
 62
     7
 10
1627.8547297297
 20
1385.4932432432
 30
0.0
 11
1743.3547297297
 21
1385.4932432432
 31
0.0
  0
TEXT
  5
310
  8
0
  6
CONTINUOUS
 62
     7
 10
1665.0260258867
 20
1392.0359139734
 30
0.0
 40
18.5208333333
  1
115
 50
0.0
 41
0.7
 11
1665.0260258867
 21
1385.4932432432
 31
0.0
 73
     1
  0
ENDBLK
  5
30A
  8
0
  0
BLOCK
  8
0
  2
_D_9
 70
     0
 10
0.0
 20
0.0
 30
0.0
  3
_D_9
  1

  0
SOLID
  5
315
  8
0
  6
CONTINUOUS
 62
     7
 10
1577.8547297297
 20
1335.4932432432
 30
0.0
 11
1575.3547297297
 21
1318.9832432432
 31
0.0
 12
1580.3547297297
 22
1318.9832432432
 32
0.0
 13
1580.3547297297
 23
1318.9832432432
 33
0.0
  0
SOLID
  5
316
  8
0
  6
CONTINUOUS
 62
     7
 10
1577.8547297297
 20
1194.9932432432
 30
0.0
 11
1580.3547297297
 21
1211.5032432432
 31
0.0
 12
1575.3547297297
 22
1211.5032432432
 32
0.0
 13
1575.3547297297
 23
1211.5032432432
 33
0.0
  0
LINE
  5
317
  8
0
  6
CONTINUOUS
 62
     7
 10
1623.3547106913
 20
1335.4932432432
 30
0.0
 11
1572.8547297297
 21
1335.4932432432
 31
0.0
  0
LINE
  5
318
  8
0
  6
CONTINUOUS
 62
     7
 10
1623.3547106913
 20
1194.9932432432
 30
0.0
 11
1572.8547297297
 21
1194.9932432432
 31
0.0
  0
LINE
  5
319
  8
0
  6
CONTINUOUS
 62
     7
 10
1577.8547297297
 20
1335.4932432432
 30
0.0
 11
1577.8547297297
 21
1194.9932432432
 31
0.0
  0
TEXT
  5
31A
  8
0
  6
CONTINUOUS
 62
     7
 10
1571.3120589996
 20
1244.6645394002
 30
0.0
 40
18.5208333333
  1
140
 50
90.0
 41
0.7
 11
1577.8547297297
 21
1244.6645394002
 31
0.0
 73
     1
  0
ENDBLK
  5
314
  8
0
  0
BLOCK
  8
0
  2
_D_10
 70
     0
 10
0.0
 20
0.0
 30
0.0
  3
_D_10
  1

  0
SOLID
  5
32A
  8
0
  6
CONTINUOUS
 62
     7
 10
729.7350022527
 20
419.9286725106
 30
0.0
 11
713.2250022527
 21
422.4286725106
 31
0.0
 12
713.2250022527
 22
417.4286725106
 32
0.0
 13
713.2250022527
 23
417.4286725106
 33
0.0
  0
SOLID
  5
32B
  8
0
  6
CONTINUOUS
 62
     7
 10
664.7350022527
 20
419.9286725106
 30
0.0
 11
681.2450022527
 21
417.4286725106
 31
0.0
 12
681.2450022527
 22
422.4286725106
 32
0.0
 13
681.2450022527
 23
422.4286725106
 33
0.0
  0
LINE
  5
32C
  8
0
  6
CONTINUOUS
 62
     7
 10
729.7350022527
 20
681.8256194113
 30
0.0
 11
729.7350022527
 21
414.9286725106
 31
0.0
  0
LINE
  5
32D
  8
0
  6
CONTINUOUS
 62
     7
 10
664.7350022527
 20
495.1827425478
 30
0.0
 11
664.7350022527
 21
414.9286725106
 31
0.0
  0
LINE
  5
32E
  8
0
  6
CONTINUOUS
 62
     7
 10
729.7350022527
 20
419.9286725106
 30
0.0
 11
664.7350022527
 21
419.9286725106
 31
0.0
  0
TEXT
  5
32F
  8
0
  6
CONTINUOUS
 62
     7
 10
683.5158663573
 20
426.4713432407
 30
287.5
 40
18.5208333333
  1
13
 50
0.0
 41
0.7
 11
683.5158663573
 21
419.9286725106
 31
287.5
 73
     1
  0
ENDBLK
  5
329
  8
0
  0
BLOCK
  8
0
  2
_D_11
 70
     0
 10
0.0
 20
0.0
 30
0.0
  3
_D_11
  1

  0
SOLID
  5
334
  8
0
  6
CONTINUOUS
 62
     7
 10
839.7350022527
 20
419.9286725106
 30
0.0
 11
823.2250022527
 21
422.4286725106
 31
0.0
 12
823.2250022527
 22
417.4286725106
 32
0.0
 13
823.2250022527
 23
417.4286725106
 33
0.0
  0
SOLID
  5
335
  8
0
  6
CONTINUOUS
 62
     7
 10
729.7350022527
 20
419.9286725106
 30
0.0
 11
746.2450022527
 21
417.4286725106
 31
0.0
 12
746.2450022527
 22
422.4286725106
 32
0.0
 13
746.2450022527
 23
422.4286725106
 33
0.0
  0
LINE
  5
336
  8
0
  6
CONTINUOUS
 62
     7
 10
839.7350022527
 20
517.2926384924
 30
0.0
 11
839.7350022527
 21
414.9286725106
 31
0.0
  0
LINE
  5
337
  8
0
  6
CONTINUOUS
 62
     7
 10
729.7350022527
 20
681.8256194113
 30
0.0
 11
729.7350022527
 21
414.9286725106
 31
0.0
  0
LINE
  5
338
  8
0
  6
CONTINUOUS
 62
     7
 10
839.7350022527
 20
419.9286725106
 30
0.0
 11
729.7350022527
 21
419.9286725106
 31
0.0
  0
TEXT
  5
339
  8
0
  6
CONTINUOUS
 62
     7
 10
771.0158663573
 20
426.4713432407
 30
287.5
 40
18.5208333333
  1
22
 50
0.0
 41
0.7
 11
771.0158663573
 21
419.9286725106
 31
287.5
 73
     1
  0
ENDBLK
  5
333
  8
0
  0
BLOCK
  8
0
  2
_D_12
 70
     0
 10
0.0
 20
0.0
 30
0.0
  3
_D_12
  1

  0
SOLID
  5
33F
  8
0
  6
CONTINUOUS
 62
     7
 10
709.7350022527
 20
810.2065069761
 30
0.0
 11
693.2250022527
 21
812.7065069761
 31
0.0
 12
693.2250022527
 22
807.7065069761
 32
0.0
 13
693.2250022527
 23
807.7065069761
 33
0.0
  0
SOLID
  5
340
  8
0
  6
CONTINUOUS
 62
     7
 10
749.7350022527
 20
810.2065069761
 30
0.0
 11
766.2450022527
 21
807.7065069761
 31
0.0
 12
766.2450022527
 22
812.7065069761
 32
0.0
 13
766.2450022527
 23
812.7065069761
 33
0.0
  0
LINE
  5
341
  8
0
  6
CONTINUOUS
 62
     7
 10
709.7350022527
 20
724.3256194113
 30
0.0
 11
709.7350022527
 21
815.2065069761
 31
0.0
  0
LINE
  5
342
  8
0
  6
CONTINUOUS
 62
     7
 10
749.7350022527
 20
724.3256194113
 30
0.0
 11
749.7350022527
 21
815.2065069761
 31
0.0
  0
LINE
  5
343
  8
0
  6
CONTINUOUS
 62
     7
 10
709.7350022527
 20
810.2065069761
 30
0.0
 11
677.9850022527
 21
810.2065069761
 31
0.0
  0
LINE
  5
344
  8
0
  6
CONTINUOUS
 62
     7
 10
709.7350022527
 20
810.2065069761
 30
0.0
 11
749.7350022527
 21
810.2065069761
 31
0.0
  0
LINE
  5
345
  8
0
  6
CONTINUOUS
 62
     7
 10
749.7350022527
 20
810.2065069761
 30
0.0
 11
781.4850022527
 21
810.2065069761
 31
0.0
  0
TEXT
  5
346
  8
0
  6
CONTINUOUS
 62
     7
 10
722.875434305
 20
816.7491777062
 30
287.5
 40
18.5208333333
  1
8
 41
0.7
 11
722.875434305
 21
810.2065069761
 31
287.5
 73
     1
  0
ENDBLK
  5
33E
  8
0
  0
BLOCK
  8
0
  2
_D_13
 70
     0
 10
0.0
 20
0.0
 30
0.0
  3
_D_13
  1

  0
SOLID
  5
34B
  8
0
  6
CONTINUOUS
 62
     7
 10
614.7350201341
 20
719.3256194113
 30
0.0
 11
612.2350201341
 21
702.8156194113
 31
0.0
 12
617.2350201341
 22
702.8156194113
 32
0.0
 13
617.2350201341
 23
702.8156194113
 33
0.0
  0
SOLID
  5
34C
  8
0
  6
CONTINUOUS
 62
     7
 10
614.7350201341
 20
659.3256194113
 30
0.0
 11
617.2350201341
 21
675.8356194113
 31
0.0
 12
612.2350201341
 22
675.8356194113
 32
0.0
 13
612.2350201341
 23
675.8356194113
 33
0.0
  0
LINE
  5
34D
  8
0
  6
CONTINUOUS
 62
     7
 10
692.2350022527
 20
719.3256194113
 30
0.0
 11
609.7350201341
 21
719.3256194113
 31
0.0
  0
LINE
  5
34E
  8
0
  6
CONTINUOUS
 62
     7
 10
724.7350022527
 20
659.3256194113
 30
0.0
 11
609.7350201341
 21
659.3256194113
 31
0.0
  0
LINE
  5
34F
  8
0
  6
CONTINUOUS
 62
     7
 10
614.7350201341
 20
719.3256194113
 30
0.0
 11
614.7350201341
 21
659.3256194113
 31
0.0
  0
TEXT
  5
350
  8
0
  6
CONTINUOUS
 62
     7
 10
608.192349404
 20
675.6064835159
 30
287.5
 40
18.5208333333
  1
12
 50
90.0
 41
0.7
 11
614.7350201341
 21
675.6064835159
 31
287.5
 73
     1
  0
ENDBLK
  5
34A
  8
0
  0
BLOCK
  8
0
  2
SW_NOTE_10
 70
     0
 10
0.0
 20
0.0
 30
0.0
  3
SW_NOTE_10
  1

  0
TEXT
  5
354
  8
0
  6
CONTINUOUS
 62
     0
 10
0.0
 20
8.4120052245
 30
0.0
 40
23.8125
  1
DETAIL Z
 41
0.7
 11
0.0
 21
0.0
 31
0.0
 73
     1
  0
TEXT
  5
355
  8
0
  6
CONTINUOUS
 62
     0
 10
38.8055574149
 20
-28.3379952114
 30
0.0
 40
23.8125
  1
1 : 1
 41
0.56
 11
38.8055574149
 21
-36.7500004359
 31
0.0
 73
     1
  0
ENDBLK
  5
353
  8
0
  0
BLOCK
  8
0
  2
SW_CENTERMARKSYMBOL_10
 70
     0
 10
0.0
 20
0.0
 30
0.0
  3
SW_CENTERMARKSYMBOL_10
  1

  0
LINE
  5
35A
  8
0
  6
CONTINUOUS
 62
     0
 10
0.0
 20
0.0
 30
0.0
 11
0.0
 21
-12.4999880791
 31
0.0
  0
LINE
  5
35B
  8
0
  6
CONTINUOUS
 62
     0
 10
0.0
 20
0.0
 30
0.0
 11
12.5001370907
 21
0.0
 31
0.0
  0
LINE
  5
35C
  8
0
  6
CONTINUOUS
 62
     0
 10
0.0
 20
0.0
 30
0.0
 11
0.0
 21
12.4999880791
 31
0.0
  0
LINE
  5
35D
  8
0
  6
CONTINUOUS
 62
     0
 10
0.0
 20
0.0
 30
0.0
 11
-12.4999880791
 21
0.0
 31
0.0
  0
LINE
  5
35E
  8
0
  6
CONTINUOUS
 62
     0
 10
0.0
 20
-24.9999761581
 30
0.0
 11
0.0
 21
-32.5000286102
 31
0.0
  0
LINE
  5
35F
  8
0
  6
CONTINUOUS
 62
     0
 10
25.0001251698
 20
0.0
 30
0.0
 11
32.5000286102
 21
0.0
 31
0.0
  0
LINE
  5
360
  8
0
  6
CONTINUOUS
 62
     0
 10
0.0
 20
24.9999761581
 30
0.0
 11
0.0
 21
32.5000286102
 31
0.0
  0
LINE
  5
361
  8
0
  6
CONTINUOUS
 62
     0
 10
-24.9999761581
 20
0.0
 30
0.0
 11
-32.4998795986
 21
0.0
 31
0.0
  0
LINE
  5
362
  8
0
  6
CONTINUOUS
 62
     0
 10
0.0
 20
-59.9999725819
 30
0.0
 11
0.0
 21
-72.4999606609
 31
0.0
  0
LINE
  5
363
  8
0
  6
CONTINUOUS
 62
     0
 10
0.0
 20
-59.9999725819
 30
0.0
 11
12.5001370907
 21
-59.9999725819
 31
0.0
  0
LINE
  5
364
  8
0
  6
CONTINUOUS
 62
     0
 10
0.0
 20
-59.9999725819
 30
0.0
 11
0.0
 21
-47.4999845028
 31
0.0
  0
LINE
  5
365
  8
0
  6
CONTINUOUS
 62
     0
 10
0.0
 20
-59.9999725819
 30
0.0
 11
-12.4999880791
 21
-59.9999725819
 31
0.0
  0
LINE
  5
366
  8
0
  6
CONTINUOUS
 62
     0
 10
0.0
 20
-84.99994874
 30
0.0
 11
0.0
 21
-92.5000011921
 31
0.0
  0
LINE
  5
367
  8
0
  6
CONTINUOUS
 62
     0
 10
25.0001251698
 20
-59.9999725819
 30
0.0
 11
32.5000286102
 21
-59.9999725819
 31
0.0
  0
LINE
  5
368
  8
0
  6
CONTINUOUS
 62
     0
 10
0.0
 20
-34.9999964237
 30
0.0
 11
0.0
 21
-27.4999439716
 31
0.0
  0
LINE
  5
369
  8
0
  6
CONTINUOUS
 62
     0
 10
-24.9999761581
 20
-59.9999725819
 30
0.0
 11
-32.4998795986
 21
-59.9999725819
 31
0.0
  0
ENDBLK
  5
359
  8
0
  0
ENDSEC
  0
SECTION
  2
ENTITIES
  0
LINE
  5
80
  8
LINIEN-NORMAL
 10
1165.0
 20
110.0
 30
0.0
 11
2050.0
 21
110.0
 31
0.0
  0
LINE
  5
81
  8
LINIEN-NORMAL
 10
1165.0
 20
155.0
 30
0.0
 11
2050.0
 21
155.0
 31
0.0
  0
LINE
  5
82
  8
LINIEN-NORMAL
 10
1165.0
 20
200.0
 30
0.0
 11
2050.0
 21
200.0
 31
0.0
  0
LINE
  5
83
  8
LINIEN-NORMAL
 10
1165.0
 20
245.0
 30
0.0
 11
2050.0
 21
245.0
 31
0.0
  0
LINE
  5
84
  8
LINIEN-DÜNN
 10
95.0
 20
992.4999999999
 30
0.0
 11
110.0
 21
992.4999999999
 31
0.0
  0
LINE
  5
85
  8
LINIEN-NORMAL
 10
1386.25
 20
50.0
 30
0.0
 11
1386.25
 21
245.0
 31
0.0
  0
LINE
  5
86
  8
LINIEN-NORMAL
 10
1646.25
 20
155.0
 30
0.0
 11
1646.25
 21
110.0
 31
0.0
  0
LINE
  5
87
  8
LINIEN-NORMAL
 10
1165.0
 20
50.0
 30
0.0
 11
2050.0
 21
50.0
 31
0.0
  0
LINE
  5
88
  8
0
  6
CONTINUOUS
 62
     7
 10
2010.7277986827
 20
173.5573399846
 30
0.0
 11
2010.7277986827
 21
166.3051719725
 31
0.0
  0
LINE
  5
89
  8
LINIEN-DÜNN
 10
0.0
 20
0.0
 30
0.0
 11
2100.0
 21
0.0
 31
0.0
  0
LINE
  5
8A
  8
LINIEN-DÜNN
 10
0.0
 20
0.0
 30
0.0
 11
0.0
 21
1485.0
 31
0.0
  0
LINE
  5
8B
  8
LINIEN-DÜNN
 10
0.0
 20
1485.0
 30
0.0
 11
2100.0
 21
1485.0
 31
0.0
  0
LINE
  5
8C
  8
LINIEN-DÜNN
 10
2100.0
 20
0.0
 30
0.0
 11
2100.0
 21
1485.0
 31
0.0
  0
LINE
  5
8D
  8
LINIEN-NORMAL
 10
1828.75
 20
110.0
 30
0.0
 11
1828.75
 21
245.0
 31
0.0
  0
LINE
  5
8E
  8
LINIEN-DÜNN
 10
2050.0
 20
992.5
 30
0.0
 11
2075.0
 21
992.5
 31
0.0
  0
LINE
  5
8F
  8
LINIEN-DÜNN
 10
95.0
 20
742.5
 30
0.0
 11
110.0
 21
742.5
 31
0.0
  0
LINE
  5
90
  8
LINIEN-NORMAL
 10
1828.75
 20
177.5
 30
0.0
 11
1386.25
 21
177.5
 31
0.0
  0
LINE
  5
91
  8
LINIEN-DÜNN
 10
95.0
 20
1242.4999999999
 30
0.0
 11
110.0
 21
1242.4999999999
 31
0.0
  0
LINE
  5
92
  8
LINIEN-NORMAL
 10
110.0
 20
1435.0
 30
0.0
 11
110.0
 21
50.0
 31
0.0
  0
LINE
  5
93
  8
LINIEN-NORMAL
 10
2050.0
 20
1435.0
 30
0.0
 11
110.0
 21
1435.0
 31
0.0
  0
LINE
  5
94
  8
LINIEN-NORMAL
 10
2050.0
 20
50.0
 30
0.0
 11
2050.0
 21
1435.0
 31
0.0
  0
LINE
  5
95
  8
LINIEN-NORMAL
 10
110.0
 20
50.0
 30
0.0
 11
2050.0
 21
50.0
 31
0.0
  0
LINE
  5
96
  8
LINIEN-DÜNN
 10
2050.0
 20
742.5
 30
0.0
 11
2075.0
 21
742.5
 31
0.0
  0
LINE
  5
97
  8
LINIEN-NORMAL
 10
1386.25
 20
222.5
 30
0.0
 11
1828.75
 21
222.5
 31
0.0
  0
LINE
  5
98
  8
LINIEN-DÜNN
 10
88.427783566
 20
492.5
 30
0.0
 11
110.0
 21
492.5
 31
0.0
  0
LINE
  5
99
  8
0
  6
CONTINUOUS
 62
     7
 10
2032.252833006
 20
166.3051719725
 30
0.0
 11
1987.9060755447
 21
166.3051719725
 31
0.0
  0
LINE
  5
9A
  8
LINIEN-DÜNN
 10
325.0
 20
1460.0
 30
0.0
 11
325.0
 21
1435.0
 31
0.0
  0
LINE
  5
9B
  8
LINIEN-DÜNN
 10
1150.0
 20
1460.0
 30
0.0
 11
1150.0
 21
1485.0
 31
0.0
  0
LINE
  5
9C
  8
0
  6
CONTINUOUS
 62
     7
 10
1990.3394885142
 20
169.7419836958
 30
0.0
 11
1990.3394885142
 21
166.3051719725
 31
0.0
  0
LINE
  5
9D
  8
0
  6
CONTINUOUS
 62
     7
 10
1990.3394885142
 20
169.7419836958
 30
0.0
 11
2010.7277986827
 21
173.5573399846
 31
0.0
  0
LINE
  5
9E
  8
0
  6
CONTINUOUS
 62
     7
 10
2010.7277986827
 20
166.3051719725
 30
0.0
 11
2010.7277986827
 21
159.0530039603
 31
0.0
  0
LINE
  5
9F
  8
LINIEN-DÜNN
 10
625.0
 20
1460.0
 30
0.0
 11
625.0
 21
1485.0
 31
0.0
  0
LINE
  5
A0
  8
LINIEN-DÜNN
 10
625.0
 20
25.0
 30
0.0
 11
625.0
 21
0.0
 31
0.0
  0
LINE
  5
A1
  8
0
  6
CONTINUOUS
 62
     7
 10
2022.6923623908
 20
158.5275370466
 30
0.0
 11
2022.6923623908
 21
174.0828068983
 31
0.0
  0
LINE
  5
A2
  8
0
  6
CONTINUOUS
 62
     7
 10
1990.3394885142
 20
162.8683602491
 30
0.0
 11
2010.7277986827
 21
159.0530039603
 31
0.0
  0
LINE
  5
A3
  8
LINIEN-NORMAL
 10
1828.75
 20
222.5
 30
0.0
 11
2050.0
 21
222.5
 31
0.0
  0
LINE
  5
A4
  8
0
  6
CONTINUOUS
 62
     7
 10
1990.3394885142
 20
162.8683602491
 30
0.0
 11
1990.3394885142
 21
166.3051719725
 31
0.0
  0
LINE
  5
A5
  8
LINIEN-NORMAL
 10
1976.25
 20
200.0
 30
0.0
 11
1976.25
 21
155.0
 31
0.0
  0
LINE
  5
A6
  8
LINIEN-NORMAL
 10
1902.5
 20
200.0
 30
0.0
 11
1902.5
 21
155.0
 31
0.0
  0
LINE
  5
A7
  8
LINIEN-NORMAL
 10
1976.25
 20
155.0
 30
0.0
 11
1976.25
 21
110.0
 31
0.0
  0
LINE
  5
A8
  8
LINIEN-NORMAL
 10
1386.25
 20
222.5
 30
0.0
 11
1165.0
 21
222.5
 31
0.0
  0
LINE
  5
A9
  8
LINIEN-NORMAL
 10
1386.25
 20
177.5
 30
0.0
 11
1165.0
 21
177.5
 31
0.0
  0
LINE
  5
AA
  8
LINIEN-DÜNN
 10
85.0
 20
242.5
 30
0.0
 11
110.0
 21
242.5
 31
0.0
  0
LINE
  5
AB
  8
LINIEN-NORMAL
 10
1976.25
 20
177.5
 30
0.0
 11
2050.0
 21
177.5
 31
0.0
  0
LINE
  5
AC
  8
LINIEN-DÜNN
 10
2050.0
 20
1242.5
 30
0.0
 11
2075.0
 21
1242.5
 31
0.0
  0
LINE
  5
AD
  8
LINIEN-DÜNN
 10
325.0
 20
50.0
 30
0.0
 11
325.0
 21
25.0
 31
0.0
  0
LINE
  5
AE
  8
LINIEN-DÜNN
 10
575.0
 20
50.0
 30
0.0
 11
575.0
 21
25.0
 31
0.0
  0
LINE
  5
AF
  8
LINIEN-DÜNN
 10
575.0
 20
1460.0
 30
0.0
 11
575.0
 21
1435.0
 31
0.0
  0
LINE
  5
B0
  8
LINIEN-DÜNN
 10
825.0
 20
50.0
 30
0.0
 11
825.0
 21
25.0
 31
0.0
  0
LINE
  5
B1
  8
LINIEN-DÜNN
 10
825.0
 20
1460.0
 30
0.0
 11
825.0
 21
1435.0
 31
0.0
  0
LINE
  5
B2
  8
LINIEN-NORMAL
 10
1165.0
 20
245.0
 30
0.0
 11
1165.0
 21
50.0
 31
0.0
  0
LINE
  5
B3
  8
LINIEN-DÜNN
 10
1075.0
 20
1460.0
 30
0.0
 11
1075.0
 21
1435.0
 31
0.0
  0
LINE
  5
B4
  8
LINIEN-DÜNN
 10
1325.0
 20
1460.0
 30
0.0
 11
1325.0
 21
1435.0
 31
0.0
  0
LINE
  5
B5
  8
LINIEN-DÜNN
 10
1575.0
 20
1460.0
 30
0.0
 11
1575.0
 21
1435.0
 31
0.0
  0
LINE
  5
B6
  8
LINIEN-DÜNN
 10
1825.0
 20
1460.0
 30
0.0
 11
1825.0
 21
1435.0
 31
0.0
  0
LINE
  5
B7
  8
0
  6
CONTINUOUS
 62
     7
 10
1150.0
 20
25.0
 30
0.0
 11
1150.0
 21
0.0
 31
0.0
  0
LINE
  5
B8
  8
0
  6
CONTINUOUS
 62
     7
 10
1325.0
 20
50.0
 30
0.0
 11
1325.0
 21
25.0
 31
0.0
  0
LINE
  5
B9
  8
0
  6
CONTINUOUS
 62
     7
 10
1075.0
 20
50.0
 30
0.0
 11
1075.0
 21
25.0
 31
0.0
  0
LINE
  5
BA
  8
0
  6
CONTINUOUS
 62
     7
 10
2050.0
 20
742.5
 30
0.0
 11
2075.0
 21
742.5
 31
0.0
  0
LINE
  5
BB
  8
0
  6
CONTINUOUS
 62
     7
 10
1825.0
 20
50.0
 30
0.0
 11
1825.0
 21
25.0
 31
0.0
  0
LINE
  5
BC
  8
0
  6
CONTINUOUS
 62
     7
 10
825.0
 20
50.0
 30
0.0
 11
825.0
 21
25.0
 31
0.0
  0
LINE
  5
BD
  8
0
  6
CONTINUOUS
 62
     7
 10
1575.0
 20
50.0
 30
0.0
 11
1575.0
 21
25.0
 31
0.0
  0
LINE
  5
BE
  8
0
  6
CONTINUOUS
 62
     7
 10
2050.0
 20
992.5
 30
0.0
 11
2075.0
 21
992.5
 31
0.0
  0
LINE
  5
BF
  8
0
  6
CONTINUOUS
 62
     7
 10
2050.0
 20
492.5
 30
0.0
 11
2075.0
 21
492.5
 31
0.0
  0
LINE
  5
C0
  8
0
  6
CONTINUOUS
 62
     7
 10
2050.0
 20
242.5
 30
0.0
 11
2075.0
 21
242.5
 31
0.0
  0
LINE
  5
C1
  8
LINIEN-DÜNN
 10
2050.0
 20
242.5
 30
0.0
 11
2075.0
 21
242.5
 31
0.0
  0
CIRCLE
  5
C2
  8
0
  6
CONTINUOUS
 62
     7
 10
2022.6923623908
 20
166.3051719725
 30
0.0
 40
7.252168012192197
  0
CIRCLE
  5
C3
  8
0
  6
CONTINUOUS
 62
     7
 10
2022.6923623908
 20
166.3051719725
 30
0.0
 40
3.436811723342829
  0
POINT
  5
C4
  8
VORLAGE_BEMASSUNG
 10
0.0
 20
0.0
 30
0.0
  0
TEXT
  5
C5
  8
VORLAGE_TEXT
 10
97.3225952048
 20
614.6508564555
 30
0.0
 40
10.0
  1
D
 41
0.7
 11
97.3225952048
 21
611.1182558363
 31
0.0
 73
     1
  0
TEXT
  5
C6
  8
VORLAGE_TEXT
 10
96.7802848542
 20
864.2728506893
 30
0.0
 40
10.0
  1
C
 41
0.7
 11
96.7802848542
 21
860.7402500701
 31
0.0
 73
     1
  0
TEXT
  5
C7
  8
VORLAGE_TEXT
 10
96.8700761838
 20
1113.1051334426
 30
0.0
 40
10.0
  1
B
 41
0.7
 11
96.8700761838
 21
1109.5725328234
 31
0.0
 73
     1
  0
TEXT
  5
C8
  8
VORLAGE_TEXT
 10
1446.4221293995
 20
1443.3563181786
 30
0.0
 40
10.0
  1
6
 41
0.7
 11
1446.4221293995
 21
1439.8237175594
 31
0.0
 73
     1
  0
TEXT
  5
C9
  8
VORLAGE_TEXT
 10
1196.458929906
 20
1443.8265533391
 30
0.0
 40
10.0
  1
5
 41
0.7
 11
1196.458929906
 21
1440.2939527199
 31
0.0
 73
     1
  0
TEXT
  5
CA
  8
VORLAGE_TEXT
 10
946.400202262
 20
1443.8135572373
 30
0.0
 40
10.0
  1
4
 41
0.7
 11
946.400202262
 21
1440.2809566181
 31
0.0
 73
     1
  0
TEXT
  5
CB
  8
VORLAGE_TEXT
 10
696.3329341685
 20
1443.8313671973
 30
0.0
 40
10.0
  1
3
 41
0.7
 11
696.3329341685
 21
1440.2987665781
 31
0.0
 73
     1
  0
TEXT
  5
CC
  8
VORLAGE_TEXT
 10
446.4161149998
 20
1443.425274659
 30
0.0
 40
10.0
  1
2
 41
0.7
 11
446.4161149998
 21
1439.8926740398
 31
0.0
 73
     1
  0
TEXT
  5
CD
  8
VORLAGE_TEXT
 10
196.5047755484
 20
1443.4070061238
 30
0.0
 40
10.0
  1
1
 41
0.7
 11
196.5047755484
 21
1439.8744055046
 31
0.0
 73
     1
  0
TEXT
  5
CE
  8
VORLAGE_TEXT
 10
96.9165168051
 20
1347.1249476293
 30
0.0
 40
10.0
  1
A
 41
0.7
 11
96.9165168051
 21
1343.5923470101
 31
0.0
 73
     1
  0
TEXT
  5
CF
  8
VORLAGE_TEXT
 10
445.9169844482
 20
33.5941683477
 30
0.0
 40
10.0
  1
2
 41
0.7
 11
445.9169844482
 21
30.0615677285
 31
0.0
 73
     1
  0
TEXT
  5
D0
  8
VORLAGE_TEXT
 10
195.7547432894
 20
33.9534824479
 30
0.0
 40
10.0
  1
1
 41
0.7
 11
195.7547432894
 21
30.4208818287
 31
0.0
 73
     1
  0
TEXT
  5
D1
  8
VORLAGE_TEXT
 10
696.4767138886
 20
33.4655004922
 30
0.0
 40
10.0
  1
3
 41
0.7
 11
696.4767138886
 21
29.932899873
 31
0.0
 73
     1
  0
TEXT
  5
D2
  8
VORLAGE_TEXT
 10
2058.8273774626
 20
1113.2023363715
 30
0.0
 40
10.0
  1
B
 41
0.7
 11
2058.8273774626
 21
1109.6697357523
 31
0.0
 73
     1
  0
TEXT
  5
D3
  8
VORLAGE_TEXT
 10
2058.4443555768
 20
1347.0410245035
 30
0.0
 40
10.0
  1
A
 41
0.7
 11
2058.4443555768
 21
1343.5084238843
 31
0.0
 73
     1
  0
TEXT
  5
D4
  8
VORLAGE_TEXT
 10
2058.2457243393
 20
864.2818437454
 30
0.0
 40
10.0
  1
C
 41
0.7
 11
2058.2457243393
 21
860.7492431262
 31
0.0
 73
     1
  0
TEXT
  5
D5
  8
VORLAGE_TEXT
 10
1696.3582333171
 20
1443.6190622726
 30
0.0
 40
10.0
  1
7
 41
0.7
 11
1696.3582333171
 21
1440.0864616535
 31
0.0
 73
     1
  0
TEXT
  5
D6
  8
VORLAGE_TEXT
 10
1946.43828632
 20
1443.7496716917
 30
0.0
 40
10.0
  1
8
 41
0.7
 11
1946.43828632
 21
1440.2170710725
 31
0.0
 73
     1
  0
TEXT
  5
D7
  8
VORLAGE_TEXT
 10
97.5605912519
 20
364.2757372928
 30
0.0
 40
10.0
  1
E
 41
0.7
 11
97.5605912519
 21
360.7431366736
 31
0.0
 73
     1
  0
TEXT
  5
D8
  8
VORLAGE_TEXT
 10
97.3925887109
 20
129.5085313017
 30
0.0
 40
10.0
  1
F
 41
0.7
 11
97.3925887109
 21
125.9759306825
 31
0.0
 73
     1
  0
TEXT
  5
D9
  8
VORLAGE_TEXT
 10
2058.1170106825
 20
612.9007648591
 30
0.0
 40
10.0
  1
D
 41
0.7
 11
2058.1170106825
 21
609.3681642399
 31
0.0
 73
     1
  0
INSERT
  5
DF
  8
0
  6
CONTINUOUS
 62
     7
  2
SW_NOTE_7
 10
95.461427273
 20
743.6541911112
 30
0.0
  0
TEXT
  5
E0
  8
0
  6
CONTINUOUS
 62
     7
 10
946.3636151193
 20
34.1785078643
 30
0.0
 40
10.0
  1
4
 41
0.7
 11
946.3636151193
 21
30.6459072451
 31
0.0
 73
     1
  0
TEXT
  5
E1
  8
0
  6
CONTINUOUS
 62
     7
 10
1695.2517372913
 20
34.2444707468
 30
0.0
 40
10.0
  1
7
 41
0.7
 11
1695.2517372913
 21
30.7118701276
 31
0.0
 73
     1
  0
TEXT
  5
E2
  8
0
  6
CONTINUOUS
 62
     7
 10
1195.6248912657
 20
33.460686634
 30
0.0
 40
10.0
  1
5
 41
0.7
 11
1195.6248912657
 21
29.9280860148
 31
0.0
 73
     1
  0
TEXT
  5
E3
  8
0
  6
CONTINUOUS
 62
     7
 10
2058.0490995476
 20
363.1900769843
 30
0.0
 40
10.0
  1
E
 41
0.7
 11
2058.0490995476
 21
359.6574763651
 31
0.0
 73
     1
  0
TEXT
  5
E4
  8
0
  6
CONTINUOUS
 62
     7
 10
1445.1932385895
 20
34.0842600329
 30
0.0
 40
10.0
  1
6
 41
0.7
 11
1445.1932385895
 21
30.5516594137
 31
0.0
 73
     1
  0
TEXT
  5
E5
  8
0
  6
CONTINUOUS
 62
     7
 10
2058.1170106825
 20
612.9007648591
 30
0.0
 40
10.0
  1
D
 41
0.7
 11
2058.1170106825
 21
609.3681642399
 31
0.0
 73
     1
  0
TEXT
  5
E6
  8
0
  6
CONTINUOUS
 62
     7
 10
2058.2457243393
 20
864.2818437454
 30
0.0
 40
10.0
  1
C
 41
0.7
 11
2058.2457243393
 21
860.7492431262
 31
0.0
 73
     1
  0
TEXT
  5
E7
  8
0
  6
CONTINUOUS
 62
     7
 10
1929.1255068254
 20
34.683968182
 30
0.0
 40
9.0
  1
Plotdatum: 29.03.2019
 41
0.7
 11
1929.1255068254
 21
31.5046276247
 31
0.0
 73
     1
  0
TEXT
  5
E8
  8
0
  6
CONTINUOUS
 62
     7
 10
2064.6700493091
 20
61.9990222814
 30
0.0
 40
9.0
  1
CAD-System: SolidWorks
 50
90.0
 41
0.7
 11
2067.8493898664
 21
61.9990222814
 31
0.0
 73
     1
  0
INSERT
  5
EE
  8
0
  6
CONTINUOUS
 62
     7
  2
SW_NOTE_8
 10
39.5229422099
 20
742.2810095183
 30
0.0
  0
INSERT
  5
F4
  8
0
  6
CONTINUOUS
 62
     7
  2
SW_NOTE_9
 10
64.5005742822
 20
742.9932001092
 30
0.0
  0
TEXT
  5
F5
  8
0
  6
CONTINUOUS
 62
     7
 10
37.4183903291
 20
586.2868620468
 30
0.0
 40
10.0
  1
Alle Masse in Millimeter
 50
90.0
 41
0.65625
 11
40.9509909482
 21
586.2868620468
 31
0.0
 73
     1
  0
TEXT
  5
F6
  8
0
  6
CONTINUOUS
 62
     7
 10
1926.5031178391
 20
228.6588065796
 30
0.0
 40
12.5
  1
13627
 41
0.7
 11
1926.5031178391
 21
224.2430558056
 31
0.0
 73
     1
  0
TEXT
  5
F7
  8
0
  6
CONTINUOUS
 62
     7
 10
1832.5
 20
206.0326007798
 30
0.0
 40
10.0
  1
Ersetzt durch:
 41
0.7
 11
1832.5
 21
202.5000001607
 31
0.0
 73
     1
  0
TEXT
  5
F8
  8
0
  6
CONTINUOUS
 62
     7
 10
1832.5
 20
228.5326007798
 30
0.0
 40
10.0
  1
Ersatz für:
 41
0.7
 11
1832.5
 21
225.0000001607
 31
0.0
 73
     1
  0
TEXT
  5
F9
  8
0
  6
CONTINUOUS
 62
     7
 10
2020.6936030817
 20
119.6263513468
 30
0.0
 40
18.5208333333
  1
-
 41
0.7
 11
2020.6936030817
 21
113.0836806167
 31
0.0
 73
     1
  0
TEXT
  5
FA
  8
0
  6
CONTINUOUS
 62
     7
 10
1254.1759173572
 20
119.4413370721
 30
0.0
 40
15.875
  1
Freigegeben
 41
0.7
 11
1254.1759173572
 21
113.8333335891
 31
0.0
 73
     1
  0
TEXT
  5
FB
  8
0
  6
CONTINUOUS
 62
     7
 10
1345.0
 20
184.4157502338
 30
0.0
 40
12.5
  1
fha
 41
0.7
 11
1345.0
 21
179.9999994598
 31
0.0
 73
     1
  0
TEXT
  5
FC
  8
0
  6
CONTINUOUS
 62
     7
 10
1250.0
 20
184.4157502338
 30
0.0
 40
12.5
  1
25.03.2019
 41
0.7
 11
1250.0
 21
179.9999994598
 31
0.0
 73
     1
  0
TEXT
  5
FD
  8
0
  6
CONTINUOUS
 62
     7
 10
1337.5
 20
162.127557757
 30
0.0
 40
10.5833333333
  1
/
 41
0.7
 11
1337.5
 21
158.3888887684
 31
0.0
 73
     1
  0
TEXT
  5
FE
  8
0
  6
CONTINUOUS
 62
     7
 10
1337.5
 20
184.627557757
 30
0.0
 40
10.5833333333
  1
/
 41
0.7
 11
1337.5
 21
180.8888887684
 31
0.0
 73
     1
  0
TEXT
  5
FF
  8
0
  6
CONTINUOUS
 62
     7
 10
1337.5
 20
207.127557757
 30
0.0
 40
10.5833333333
  1
/
 41
0.7
 11
1337.5
 21
203.3888887684
 31
0.0
 73
     1
  0
TEXT
  5
100
  8
0
  6
CONTINUOUS
 62
     7
 10
1337.5
 20
228.6289466514
 30
0.0
 40
10.5833333333
  1
/
 41
0.7
 11
1337.5
 21
224.8902776628
 31
0.0
 73
     1
  0
TEXT
  5
101
  8
0
  6
CONTINUOUS
 62
     7
 10
1345.0
 20
228.5326003049
 30
0.0
 40
10.0
  1
Name
 41
0.7
 11
1345.0
 21
224.9999996857
 31
0.0
 73
     1
  0
TEXT
  5
102
  8
0
  6
CONTINUOUS
 62
     7
 10
1288.75
 20
228.5326003049
 30
0.0
 40
10.0
  1
Datum
 41
0.7
 11
1288.75
 21
224.9999996857
 31
0.0
 73
     1
  0
TEXT
  5
103
  8
0
  6
CONTINUOUS
 62
     7
 10
1861.9335397049
 20
163.1385659521
 30
0.0
 40
15.875
  1
/
 41
0.7
 11
1861.9335397049
 21
157.5305624691
 31
0.0
 73
     1
  0
TEXT
  5
104
  8
0
  6
CONTINUOUS
 62
     7
 10
1390.0
 20
96.0326007798
 30
0.0
 40
10.0
  1
Beschreibung:
 41
0.7
 11
1390.0
 21
92.5000001607
 31
0.0
 73
     1
  0
TEXT
  5
105
  8
0
  6
CONTINUOUS
 62
     7
 10
1170.0
 20
141.0326007798
 30
0.0
 40
10.0
  1
Status:
 41
0.7
 11
1170.0
 21
137.5000001607
 31
0.0
 73
     1
  0
TEXT
  5
106
  8
0
  6
CONTINUOUS
 62
     7
 10
1250.0
 20
161.9157502338
 30
0.0
 40
12.5
  1
25.03.2019
 41
0.7
 11
1250.0
 21
157.4999994598
 31
0.0
 73
     1
  0
TEXT
  5
107
  8
0
  6
CONTINUOUS
 62
     7
 10
1345.0
 20
161.9157502338
 30
0.0
 40
12.5
  1
rfl
 41
0.7
 11
1345.0
 21
157.4999994598
 31
0.0
 73
     1
  0
TEXT
  5
108
  8
0
  6
CONTINUOUS
 62
     7
 10
1345.0
 20
206.9157502338
 30
0.0
 40
12.5
  1
dce
 41
0.7
 11
1345.0
 21
202.4999994598
 31
0.0
 73
     1
  0
TEXT
  5
109
  8
0
  6
CONTINUOUS
 62
     7
 10
1250.0
 20
206.9157502338
 30
0.0
 40
12.5
  1
28.06.2018
 41
0.7
 11
1250.0
 21
202.4999994598
 31
0.0
 73
     1
  0
TEXT
  5
10A
  8
0
  6
CONTINUOUS
 62
     7
 10
1170.0
 20
183.5326003049
 30
0.0
 40
10.0
  1
Geändert:
 41
0.7
 11
1170.0
 21
179.9999996857
 31
0.0
 73
     1
  0
TEXT
  5
10B
  8
0
  6
CONTINUOUS
 62
     7
 10
1390.0
 20
206.0326007798
 30
0.0
 40
10.0
  1
Behandlung / Farbe:
 41
0.6631578947
 11
1390.0
 21
202.5000001607
 31
0.0
 73
     1
  0
TEXT
  5
10C
  8
0
  6
CONTINUOUS
 62
     7
 10
1633.1098090019
 20
119.4413370721
 30
0.0
 40
15.875
  1
-
 41
0.7
 11
1633.1098090019
 21
113.8333335891
 31
0.0
 73
     1
  0
TEXT
  5
10D
  8
0
  6
CONTINUOUS
 62
     7
 10
1525.0
 20
161.3139616922
 30
0.0
 40
13.2291666667
  1
Fenster + Fassade
 41
0.6588235294
 11
1525.0
 21
156.6406254563
 31
0.0
 73
     1
  0
TEXT
  5
10E
  8
0
  6
CONTINUOUS
 62
     7
 10
1390.0
 20
141.0326007798
 30
0.0
 40
10.0
  1
SAP-Nr.:
 41
0.7
 11
1390.0
 21
137.5000001607
 31
0.0
 73
     1
  0
TEXT
  5
10F
  8
0
  6
CONTINUOUS
 62
     7
 10
1390.0
 20
183.5326007798
 30
0.0
 40
10.0
  1
Gewicht:
 41
0.7
 11
1390.0
 21
180.0000001607
 31
0.0
 73
     1
  0
TEXT
  5
110
  8
0
  6
CONTINUOUS
 62
     7
 10
1390.0
 20
228.5326007798
 30
0.0
 40
10.0
  1
Material:
 41
0.7
 11
1390.0
 21
225.0000001607
 31
0.0
 73
     1
  0
TEXT
  5
111
  8
0
  6
CONTINUOUS
 62
     7
 10
1525.0
 20
206.1935297776
 30
0.0
 40
12.5
  1
-
 41
0.7
 11
1525.0
 21
201.7777790036
 31
0.0
 73
     1
  0
TEXT
  5
112
  8
0
  6
CONTINUOUS
 62
     7
 10
1170.0
 20
206.0326003049
 30
0.0
 40
10.0
  1
Gezeichnet:
 41
0.7
 11
1170.0
 21
202.4999996857
 31
0.0
 73
     1
  0
TEXT
  5
113
  8
0
  6
CONTINUOUS
 62
     7
 10
1774.8352456229
 20
184.0651009335
 30
0.0
 40
7.5
  1
Profile g/m
 41
0.7
 11
1774.8352456229
 21
181.4156504691
 31
0.0
 73
     1
  0
TEXT
  5
114
  8
0
  6
CONTINUOUS
 62
     7
 10
1525.0
 20
228.6935286134
 30
0.0
 40
12.5
  1
-
 41
0.7
 11
1525.0
 21
224.2777778395
 31
0.0
 73
     1
  0
TEXT
  5
115
  8
0
  6
CONTINUOUS
 62
     7
 10
1979.4383681193
 20
141.0326007798
 30
0.0
 40
10.0
  1
Rev.:
 41
0.7
 11
1979.4383681193
 21
137.5000001607
 31
0.0
 73
     1
  0
TEXT
  5
116
  8
0
  6
CONTINUOUS
 62
     7
 10
1980.3168930188
 20
184.1616576918
 30
0.0
 40
9.0
  1
Format:
 41
0.7
 11
1980.3168930188
 21
180.9823171346
 31
0.0
 73
     1
  0
TEXT
  5
117
  8
0
  6
CONTINUOUS
 62
     7
 10
1650.0
 20
141.0326007798
 30
0.0
 40
10.0
  1
Stobag-Nr.:
 41
0.7
 11
1650.0
 21
137.5000001607
 31
0.0
 73
     1
  0
TEXT
  5
118
  8
0
  6
CONTINUOUS
 62
     7
 10
2024.8399670171
 20
184.5073893883
 30
0.0
 40
13.2291666667
  1
A3
 41
0.7
 11
2024.8399670171
 21
179.8340531525
 31
0.0
 73
     1
  0
TEXT
  5
119
  8
0
  6
CONTINUOUS
 62
     7
 10
1832.5
 20
141.0326007798
 30
0.0
 40
10.0
  1
CAD-Nr.:
 41
0.7
 11
1832.5
 21
137.5000001607
 31
0.0
 73
     1
  0
TEXT
  5
11A
  8
0
  6
CONTINUOUS
 62
     7
 10
1904.336074679
 20
119.6263513468
 30
0.0
 40
18.5208333333
  1
14509
 41
0.7
 11
1904.336074679
 21
113.0836806167
 31
0.0
 73
     1
  0
TEXT
  5
11B
  8
0
  6
CONTINUOUS
 62
     7
 10
1926.2238363179
 20
163.1385659521
 30
0.0
 40
15.875
  1
1:5
 41
0.7
 11
1926.2238363179
 21
157.5305624691
 31
0.0
 73
     1
  0
TEXT
  5
11C
  8
0
  6
CONTINUOUS
 62
     7
 10
1879.0376944679
 20
163.1385659521
 30
0.0
 40
15.875
  1
6
 41
0.7
 11
1879.0376944679
 21
157.5305624691
 31
0.0
 73
     1
  0
TEXT
  5
11D
  8
0
  6
CONTINUOUS
 62
     7
 10
1837.999838226
 20
163.1385659521
 30
0.0
 40
15.875
  1
2
 41
0.7
 11
1837.999838226
 21
157.5305624691
 31
0.0
 73
     1
  0
TEXT
  5
11E
  8
0
  6
CONTINUOUS
 62
     7
 10
1851.2186673721
 20
184.1616576918
 30
0.0
 40
9.0
  1
Blatt:
 41
0.7
 11
1851.2186673721
 21
180.9823171346
 31
0.0
 73
     1
  0
TEXT
  5
11F
  8
0
  6
CONTINUOUS
 62
     7
 10
1912.6463173332
 20
184.1616576918
 30
0.0
 40
9.0
  1
Massstab:
 41
0.7
 11
1912.6463173332
 21
180.9823171346
 31
0.0
 73
     1
  0
TEXT
  5
120
  8
0
  6
CONTINUOUS
 62
     7
 10
1390.0
 20
64.2551160961
 30
0.0
 40
21.1666666667
  1
VENTOSOL VM720/3 
 41
0.6588235294
 11
1390.0
 21
56.7777781188
 31
0.0
 73
     1
  0
TEXT
  5
121
  8
0
  6
CONTINUOUS
 62
     7
 10
1739.0864288807
 20
119.4413370721
 30
0.0
 40
15.875
  1
VM720/3
 41
0.7
 11
1739.0864288807
 21
113.8333335891
 31
0.0
 73
     1
  0
TEXT
  5
122
  8
0
  6
CONTINUOUS
 62
     7
 10
1390.0
 20
161.0326007798
 30
0.0
 40
10.0
  1
Kategorie:
 41
0.7
 11
1390.0
 21
157.5000001607
 31
0.0
 73
     1
  0
TEXT
  5
123
  8
0
  6
CONTINUOUS
 62
     7
 10
1170.0
 20
161.0326007798
 30
0.0
 40
10.0
  1
Geprüft:
 41
0.7
 11
1170.0
 21
157.5000001607
 31
0.0
 73
     1
  0
TEXT
  5
124
  8
0
  6
CONTINUOUS
 62
     7
 10
1525.0
 20
183.6935286134
 30
0.0
 40
12.5
  1
18174 g
 41
0.7
 11
1525.0
 21
179.2777778395
 31
0.0
 73
     1
  0
LINE
  5
125
  8
0
  6
CONTINUOUS
 62
     7
 10
1242.4493243243
 20
1262.4414290784
 30
0.0
 11
1242.4868243243
 21
1262.4414290784
 31
0.0
  0
LINE
  5
126
  8
0
  6
CONTINUOUS
 62
     7
 10
1242.4868243243
 20
1267.7349578178
 30
0.0
 11
1242.4493243243
 21
1267.7349578178
 31
0.0
  0
LINE
  5
127
  8
0
  6
CONTINUOUS
 62
     7
 10
242.4118243243
 20
1262.4414290784
 30
0.0
 11
242.4493243243
 21
1262.4414290784
 31
0.0
  0
LINE
  5
128
  8
0
  6
CONTINUOUS
 62
     7
 10
242.4493243243
 20
1267.7349578178
 30
0.0
 11
242.4118243243
 21
1267.7349578178
 31
0.0
  0
LINE
  5
129
  8
0
  6
CONTINUOUS
 62
     7
 10
242.4493243243
 20
1195.2432432432
 30
0.0
 11
242.4493243243
 21
337.2432432432
 31
0.0
  0
LINE
  5
12A
  8
0
  6
CONTINUOUS
 62
     7
 10
242.4493243243
 20
1195.2432432432
 30
0.0
 11
243.4493243244
 21
1195.2432432432
 31
0.0
  0
LINE
  5
12B
  8
0
  6
CONTINUOUS
 62
     7
 10
242.4493243243
 20
337.2432432432
 30
0.0
 11
243.4493243244
 21
337.2432432432
 31
0.0
  0
ARC
  5
12C
  8
0
  6
CONTINUOUS
 62
     7
 10
264.4493243243
 20
1039.2432432432
 30
0.0
 40
4.000000000000057
 50
180.0
 51
0.0
  0
LINE
  5
12D
  8
0
  6
CONTINUOUS
 62
     7
 10
268.4493243243
 20
1051.2432432432
 30
0.0
 11
268.4493243243
 21
1039.2432432432
 31
0.0
  0
ARC
  5
12E
  8
0
  6
CONTINUOUS
 62
     7
 10
264.4493243243
 20
1051.2432432432
 30
0.0
 40
4.0
 50
0.0
 51
180.0
  0
LINE
  5
12F
  8
0
  6
CONTINUOUS
 62
     7
 10
260.4493243243
 20
1051.2432432432
 30
0.0
 11
260.4493243243
 21
1039.2432432432
 31
0.0
  0
LINE
  5
130
  8
0
  6
CONTINUOUS
 62
     7
 10
243.4493243244
 20
1195.2432432432
 30
0.0
 11
243.874770722
 21
1195.2432432432
 31
0.0
  0
LINE
  5
131
  8
0
  6
CONTINUOUS
 62
     7
 10
259.3162711895
 20
1195.2432432432
 30
0.0
 11
276.4493243243
 21
1195.2432432432
 31
0.0
  0
LINE
  5
132
  8
0
  6
CONTINUOUS
 62
     7
 10
268.4493243243
 20
493.2432432432
 30
0.0
 11
268.4493243243
 21
481.2432432432
 31
0.0
  0
ARC
  5
133
  8
0
  6
CONTINUOUS
 62
     7
 10
264.4493243243
 20
493.2432432432
 30
0.0
 40
4.000000000000057
 50
0.0
 51
180.0
  0
LINE
  5
134
  8
0
  6
CONTINUOUS
 62
     7
 10
260.4493243243
 20
493.2432432432
 30
0.0
 11
260.4493243243
 21
481.2432432432
 31
0.0
  0
ARC
  5
135
  8
0
  6
CONTINUOUS
 62
     7
 10
264.4493243243
 20
481.2432432432
 30
0.0
 40
4.0
 50
180.0
 51
0.0
  0
LINE
  5
136
  8
0
  6
CONTINUOUS
 62
     7
 10
243.4493243244
 20
337.2432432432
 30
0.0
 11
276.4493243243
 21
337.2432432432
 31
0.0
  0
LINE
  5
137
  8
0
  6
CONTINUOUS
 62
     7
 10
277.4493243243
 20
1195.2432432432
 30
0.0
 11
277.4493243243
 21
337.2432432432
 31
0.0
  0
LINE
  5
138
  8
0
  6
CONTINUOUS
 62
     7
 10
276.4493243243
 20
1195.2432432432
 30
0.0
 11
277.3153497281
 21
1195.2432432432
 31
0.0
  0
LINE
  5
139
  8
0
  6
CONTINUOUS
 62
     7
 10
276.4493243243
 20
337.2432432432
 30
0.0
 11
277.4493243243
 21
337.2432432432
 31
0.0
  0
LINE
  5
13A
  8
0
  6
CONTINUOUS
 62
     7
 10
1241.4493243243
 20
1195.2432432432
 30
0.0
 11
1241.0238779266
 21
1195.2432432432
 31
0.0
  0
LINE
  5
13B
  8
0
  6
CONTINUOUS
 62
     7
 10
1225.5823774587
 20
1195.2432432432
 30
0.0
 11
1208.4493243244
 21
1195.2432432432
 31
0.0
  0
ARC
  5
13C
  8
0
  6
CONTINUOUS
 62
     7
 10
1220.4493243243
 20
481.2432432432
 30
0.0
 40
4.0
 50
180.0
 51
0.0
  0
LINE
  5
13D
  8
0
  6
CONTINUOUS
 62
     7
 10
1224.4493243243
 20
481.2432432432
 30
0.0
 11
1224.4493243243
 21
493.2432432432
 31
0.0
  0
ARC
  5
13E
  8
0
  6
CONTINUOUS
 62
     7
 10
1220.4493243243
 20
493.2432432432
 30
0.0
 40
4.0
 50
0.0
 51
180.0
  0
LINE
  5
13F
  8
0
  6
CONTINUOUS
 62
     7
 10
1216.4493243243
 20
481.2432432432
 30
0.0
 11
1216.4493243243
 21
493.2432432432
 31
0.0
  0
ARC
  5
140
  8
0
  6
CONTINUOUS
 62
     7
 10
1220.4493243243
 20
1039.2432432432
 30
0.0
 40
4.0
 50
180.0
 51
0.0
  0
LINE
  5
141
  8
0
  6
CONTINUOUS
 62
     7
 10
1224.4493243243
 20
1039.2432432432
 30
0.0
 11
1224.4493243243
 21
1051.2432432432
 31
0.0
  0
ARC
  5
142
  8
0
  6
CONTINUOUS
 62
     7
 10
1220.4493243243
 20
1051.2432432432
 30
0.0
 40
4.0
 50
0.0
 51
180.0
  0
LINE
  5
143
  8
0
  6
CONTINUOUS
 62
     7
 10
1216.4493243243
 20
1039.2432432432
 30
0.0
 11
1216.4493243243
 21
1051.2432432432
 31
0.0
  0
LINE
  5
144
  8
0
  6
CONTINUOUS
 62
     7
 10
1241.4493243243
 20
337.2432432432
 30
0.0
 11
1208.4493243244
 21
337.2432432432
 31
0.0
  0
LINE
  5
145
  8
0
  6
CONTINUOUS
 62
     7
 10
1242.4493243243
 20
337.2432432432
 30
0.0
 11
1242.4493243243
 21
1195.2432432432
 31
0.0
  0
LINE
  5
146
  8
0
  6
CONTINUOUS
 62
     7
 10
1242.4493243243
 20
1195.2432432432
 30
0.0
 11
1241.4493243243
 21
1195.2432432432
 31
0.0
  0
LINE
  5
147
  8
0
  6
CONTINUOUS
 62
     7
 10
1242.4493243243
 20
337.2432432432
 30
0.0
 11
1241.4493243243
 21
337.2432432432
 31
0.0
  0
LINE
  5
148
  8
0
  6
CONTINUOUS
 62
     7
 10
1207.4493243243
 20
337.2432432432
 30
0.0
 11
1207.4493243243
 21
1195.2432432432
 31
0.0
  0
LINE
  5
149
  8
0
  6
CONTINUOUS
 62
     7
 10
1208.4493243244
 20
1195.2432432432
 30
0.0
 11
1207.5832989206
 21
1195.2432432432
 31
0.0
  0
LINE
  5
14A
  8
0
  6
CONTINUOUS
 62
     7
 10
1208.4493243244
 20
337.2432432432
 30
0.0
 11
1207.4493243243
 21
337.2432432432
 31
0.0
  0
LINE
  5
14B
  8
0
  6
CONTINUOUS
 62
     7
 10
1237.4493243243
 20
1334.9932622817
 30
0.0
 11
1237.4493243243
 21
1195.4932242048
 31
0.0
  0
LINE
  5
14C
  8
0
  6
CONTINUOUS
 62
     7
 10
1224.6493243243
 20
1195.6049281125
 30
0.0
 11
1224.6493243243
 21
1334.881558374
 31
0.0
  0
LINE
  5
14D
  8
0
  6
CONTINUOUS
 62
     7
 10
1237.4493243243
 20
1195.4932242048
 30
0.0
 11
1237.4493243243
 21
1195.4931670908
 31
0.0
  0
LINE
  5
14E
  8
0
  6
CONTINUOUS
 62
     7
 10
1237.4493243243
 20
1334.9933193957
 30
0.0
 11
1237.4493243243
 21
1334.9932622817
 31
0.0
  0
LINE
  5
14F
  8
0
  6
CONTINUOUS
 62
     7
 10
1240.4842291372
 20
1335.4402687827
 30
0.0
 11
1237.4493243243
 21
1335.4932432432
 31
0.0
  0
ARC
  5
150
  8
0
  6
CONTINUOUS
 62
     7
 10
1208.7985761252
 20
1335.2432813181
 30
0.0
 40
28.65183869268846
 50
359.5001387151
 51
0.4998612849
  0
LINE
  5
151
  8
0
  6
CONTINUOUS
 62
     7
 10
1224.6493243243
 20
1335.3815393355
 30
0.0
 11
1224.6493243243
 21
1334.881558374
 31
0.0
  0
LINE
  5
152
  8
0
  6
CONTINUOUS
 62
     7
 10
1237.4493243243
 20
1335.4932432432
 30
0.0
 11
1224.6493243243
 21
1335.3815393355
 31
0.0
  0
ARC
  5
153
  8
0
  6
CONTINUOUS
 62
     7
 10
1208.7985761227
 20
1195.2432051684
 30
0.0
 40
28.65183869517584
 50
359.5001387151
 51
0.4998612849
  0
LINE
  5
154
  8
0
  6
CONTINUOUS
 62
     7
 10
1224.6493243243
 20
1195.6049281125
 30
0.0
 11
1224.6493243243
 21
1195.2432432432
 31
0.0
  0
LINE
  5
155
  8
0
  6
CONTINUOUS
 62
     7
 10
1242.4493243243
 20
1195.5718671994
 30
0.0
 11
1242.4493243243
 21
1333.4405733924
 31
0.0
  0
ARC
  5
156
  8
0
  6
CONTINUOUS
 62
     7
 10
1240.4493243243
 20
1333.4405733924
 30
0.0
 40
2.000000000000227
 50
0.0
 51
89.0
  0
ARC
  5
157
  8
0
  6
CONTINUOUS
 62
     7
 10
1241.9493243243
 20
1195.5718671994
 30
0.0
 40
0.5000000000002274
 50
318.9096808426
 51
0.0
  0
ARC
  5
158
  8
0
  6
CONTINUOUS
 62
     7
 10
276.1000725239
 20
1195.2432051684
 30
0.0
 40
28.65183869316209
 50
179.5001387151
 51
180.4998612849
  0
LINE
  5
159
  8
0
  6
CONTINUOUS
 62
     7
 10
247.4493243243
 20
1334.9932622817
 30
0.0
 11
247.4493243243
 21
1195.4932242048
 31
0.0
  0
LINE
  5
15A
  8
0
  6
CONTINUOUS
 62
     7
 10
260.2493243243
 20
1195.6049281125
 30
0.0
 11
260.2493243243
 21
1334.881558374
 31
0.0
  0
LINE
  5
15B
  8
0
  6
CONTINUOUS
 62
     7
 10
247.4493243243
 20
1334.9933193957
 30
0.0
 11
247.4493243243
 21
1334.9932622817
 31
0.0
  0
LINE
  5
15C
  8
0
  6
CONTINUOUS
 62
     7
 10
247.4493243243
 20
1195.4932242048
 30
0.0
 11
247.4493243243
 21
1195.4931670908
 31
0.0
  0
LINE
  5
15D
  8
0
  6
CONTINUOUS
 62
     7
 10
260.2493243243
 20
1195.6049281125
 30
0.0
 11
260.2493243243
 21
1195.2432432432
 31
0.0
  0
LINE
  5
15E
  8
0
  6
CONTINUOUS
 62
     7
 10
260.2493243243
 20
1335.3815393355
 30
0.0
 11
260.2493243243
 21
1334.881558374
 31
0.0
  0
ARC
  5
15F
  8
0
  6
CONTINUOUS
 62
     7
 10
276.1000725255
 20
1335.2432813181
 30
0.0
 40
28.65183869476198
 50
179.5001387151
 51
180.4998612849
  0
LINE
  5
160
  8
0
  6
CONTINUOUS
 62
     7
 10
247.4493243243
 20
1335.4932432432
 30
0.0
 11
260.2493243243
 21
1335.3815393355
 31
0.0
  0
LINE
  5
161
  8
0
  6
CONTINUOUS
 62
     7
 10
244.4144195114
 20
1335.4402687827
 30
0.0
 11
247.4493243243
 21
1335.4932432432
 31
0.0
  0
LINE
  5
162
  8
0
  6
CONTINUOUS
 62
     7
 10
242.4493243243
 20
1195.5718671994
 30
0.0
 11
242.4493243243
 21
1333.4405733924
 31
0.0
  0
ARC
  5
163
  8
0
  6
CONTINUOUS
 62
     7
 10
242.9493243243
 20
1195.5718671994
 30
0.0
 40
0.5000000000000326
 50
180.0
 51
221.0903191574
  0
ARC
  5
164
  8
0
  6
CONTINUOUS
 62
     7
 10
244.4493243243
 20
1333.4405733924
 30
0.0
 40
1.999999999999794
 50
91.0
 51
180.0
  0
LINE
  5
165
  8
0
  6
CONTINUOUS
 62
     7
 10
1197.8493243243
 20
1179.1138894407
 30
0.0
 11
287.0493243243
 21
1179.1138894407
 31
0.0
  0
LINE
  5
166
  8
0
  6
CONTINUOUS
 62
     7
 10
1197.8493243243
 20
1180.2138894407
 30
0.0
 11
287.0493243243
 21
1180.2138894407
 31
0.0
  0
LINE
  5
167
  8
0
  6
CONTINUOUS
 62
     7
 10
1197.8493243243
 20
1180.2138894407
 30
0.0
 11
1197.8493243243
 21
1179.1138894407
 31
0.0
  0
LINE
  5
168
  8
0
  6
CONTINUOUS
 62
     7
 10
288.0993243243
 20
1179.6389156901
 30
0.0
 11
288.0993243243
 21
1179.6888631914
 31
0.0
  0
LINE
  5
169
  8
0
  6
CONTINUOUS
 62
     7
 10
1196.7993243243
 20
1179.6389156901
 30
0.0
 11
288.0993243243
 21
1179.6389156901
 31
0.0
  0
LINE
  5
16A
  8
0
  6
CONTINUOUS
 62
     7
 10
1196.7993243243
 20
1179.6888631914
 30
0.0
 11
1196.7993243243
 21
1179.6389156901
 31
0.0
  0
LINE
  5
16B
  8
0
  6
CONTINUOUS
 62
     7
 10
1196.7993243243
 20
1179.6888631914
 30
0.0
 11
288.0993243243
 21
1179.6888631914
 31
0.0
  0
LINE
  5
16C
  8
0
  6
CONTINUOUS
 62
     7
 10
287.0493243243
 20
1179.1138894407
 30
0.0
 11
287.0493243243
 21
1180.2138894407
 31
0.0
  0
LINE
  5
16D
  8
0
  6
CONTINUOUS
 62
     7
 10
1197.8493243243
 20
1195.2432432433
 30
0.0
 11
1197.8493243243
 21
1180.2138894407
 31
0.0
  0
LINE
  5
16E
  8
0
  6
CONTINUOUS
 62
     7
 10
287.0493243243
 20
1180.2138894407
 30
0.0
 11
287.0493243243
 21
1195.2432432433
 31
0.0
  0
LINE
  5
16F
  8
0
  6
CONTINUOUS
 62
     7
 10
242.4493243243
 20
335.2432432433
 30
0.0
 11
242.4493243243
 21
337.2432432433
 31
0.0
  0
LINE
  5
170
  8
0
  6
CONTINUOUS
 62
     7
 10
243.4493243243
 20
335.2432432432
 30
0.0
 11
242.4493243243
 21
335.2432432433
 31
0.0
  0
LINE
  5
171
  8
0
  6
CONTINUOUS
 62
     7
 10
276.4493243243
 20
335.2432432432
 30
0.0
 11
243.4493243243
 21
335.2432432432
 31
0.0
  0
LINE
  5
172
  8
0
  6
CONTINUOUS
 62
     7
 10
277.4493243243
 20
337.2432432432
 30
0.0
 11
277.4493243243
 21
335.2432432432
 31
0.0
  0
LINE
  5
173
  8
0
  6
CONTINUOUS
 62
     7
 10
277.4493243243
 20
335.2432432432
 30
0.0
 11
276.4493243243
 21
335.2432432432
 31
0.0
  0
LINE
  5
174
  8
0
  6
CONTINUOUS
 62
     7
 10
1242.4493243243
 20
337.2432432432
 30
0.0
 11
1242.4493243243
 21
335.2432432432
 31
0.0
  0
LINE
  5
175
  8
0
  6
CONTINUOUS
 62
     7
 10
1242.4493243243
 20
335.2432432432
 30
0.0
 11
1241.4493243243
 21
335.2432432433
 31
0.0
  0
LINE
  5
176
  8
0
  6
CONTINUOUS
 62
     7
 10
1208.4493243243
 20
335.2432432432
 30
0.0
 11
1241.4493243243
 21
335.2432432433
 31
0.0
  0
LINE
  5
177
  8
0
  6
CONTINUOUS
 62
     7
 10
1207.4493243243
 20
335.2432432432
 30
0.0
 11
1207.4493243243
 21
337.2432432432
 31
0.0
  0
LINE
  5
178
  8
0
  6
CONTINUOUS
 62
     7
 10
1208.4493243243
 20
335.2432432432
 30
0.0
 11
1207.4493243243
 21
335.2432432432
 31
0.0
  0
LINE
  5
179
  8
0
  6
CONTINUOUS
 62
     7
 10
260.4493243243
 20
1316.2432432432
 30
0.0
 11
260.2493243243
 21
1316.2432432432
 31
0.0
  0
LINE
  5
17A
  8
0
  6
CONTINUOUS
 62
     7
 10
260.2493243243
 20
1320.2432432432
 30
0.0
 11
260.4493243243
 21
1320.2432432432
 31
0.0
  0
LINE
  5
17B
  8
0
  6
CONTINUOUS
 62
     7
 10
260.2493243243
 20
1214.2432432432
 30
0.0
 11
260.4493243243
 21
1214.2432432432
 31
0.0
  0
LINE
  5
17C
  8
0
  6
CONTINUOUS
 62
     7
 10
260.4493243243
 20
1210.2432432432
 30
0.0
 11
260.2493243243
 21
1210.2432432432
 31
0.0
  0
LINE
  5
17D
  8
0
  6
CONTINUOUS
 62
     7
 10
260.2493243243
 20
1330.2432432432
 30
0.0
 11
260.4493243243
 21
1330.2432432432
 31
0.0
  0
LINE
  5
17E
  8
0
  6
CONTINUOUS
 62
     7
 10
260.2493243243
 20
1200.2432432432
 30
0.0
 11
260.4493243243
 21
1200.2432432432
 31
0.0
  0
LINE
  5
17F
  8
0
  6
CONTINUOUS
 62
     7
 10
260.2493243243
 20
1331.6432432432
 30
0.0
 11
260.4493243243
 21
1331.6432432432
 31
0.0
  0
LINE
  5
180
  8
0
  6
CONTINUOUS
 62
     7
 10
1224.6493243243
 20
1316.2432432432
 30
0.0
 11
1224.4493243243
 21
1316.2432432432
 31
0.0
  0
LINE
  5
181
  8
0
  6
CONTINUOUS
 62
     7
 10
1224.4493243243
 20
1214.2432432432
 30
0.0
 11
1224.6493243243
 21
1214.2432432432
 31
0.0
  0
LINE
  5
182
  8
0
  6
CONTINUOUS
 62
     7
 10
1224.4493243243
 20
1320.2432432432
 30
0.0
 11
1224.6493243243
 21
1320.2432432432
 31
0.0
  0
LINE
  5
183
  8
0
  6
CONTINUOUS
 62
     7
 10
1224.6493243243
 20
1210.2432432432
 30
0.0
 11
1224.4493243243
 21
1210.2432432432
 31
0.0
  0
LINE
  5
184
  8
0
  6
CONTINUOUS
 62
     7
 10
1224.4493243243
 20
1330.2432432432
 30
0.0
 11
1224.6493243243
 21
1330.2432432432
 31
0.0
  0
LINE
  5
185
  8
0
  6
CONTINUOUS
 62
     7
 10
1224.4493243243
 20
1200.2432432432
 30
0.0
 11
1224.6493243243
 21
1200.2432432432
 31
0.0
  0
LINE
  5
186
  8
0
  6
CONTINUOUS
 62
     7
 10
1224.4493243243
 20
1331.6432432432
 30
0.0
 11
1224.6493243243
 21
1331.6432432432
 31
0.0
  0
LINE
  5
187
  8
0
  6
CONTINUOUS
 62
     7
 10
260.4493243243
 20
1334.7432432433
 30
0.0
 11
260.4493243243
 21
1335.2432432433
 31
0.0
  0
LINE
  5
188
  8
0
  6
CONTINUOUS
 62
     7
 10
260.4493243243
 20
1335.2432432433
 30
0.0
 11
1224.4493243243
 21
1335.2432432433
 31
0.0
  0
LINE
  5
189
  8
0
  6
CONTINUOUS
 62
     7
 10
1224.4493243243
 20
1335.2432432433
 30
0.0
 11
1224.4493243243
 21
1334.7432432433
 31
0.0
  0
LINE
  5
18A
  8
0
  6
CONTINUOUS
 62
     7
 10
260.4493243243
 20
1334.7432432433
 30
0.0
 11
260.4493243243
 21
1195.7432432433
 31
0.0
  0
LINE
  5
18B
  8
0
  6
CONTINUOUS
 62
     7
 10
1224.4493243243
 20
1334.7432432433
 30
0.0
 11
1224.4493243243
 21
1195.7432432433
 31
0.0
  0
LINE
  5
18C
  8
0
  6
CONTINUOUS
 62
     7
 10
1207.5832989206
 20
1195.2432432432
 30
0.0
 11
277.3153497281
 21
1195.2432432432
 31
0.0
  0
LINE
  5
18D
  8
0
  6
CONTINUOUS
 62
     7
 10
260.4493243243
 20
1195.2432432433
 30
0.0
 11
260.4493243243
 21
1195.7432432433
 31
0.0
  0
LINE
  5
18E
  8
0
  6
CONTINUOUS
 62
     7
 10
1224.4493243243
 20
1195.7432432433
 30
0.0
 11
1224.4493243243
 21
1195.2432432433
 31
0.0
  0
LINE
  5
18F
  8
0
  6
CONTINUOUS
 62
     7
 10
243.4493243244
 20
1195.2432432432
 30
0.0
 11
243.4493243244
 21
337.2432432432
 31
0.0
  0
LINE
  5
190
  8
0
  6
CONTINUOUS
 62
     7
 10
276.4493243243
 20
1195.2432432432
 30
0.0
 11
276.4493243243
 21
337.2432432432
 31
0.0
  0
LINE
  5
191
  8
0
  6
CONTINUOUS
 62
     7
 10
1241.4493243243
 20
337.2432432432
 30
0.0
 11
1241.4493243243
 21
1195.2432432432
 31
0.0
  0
LINE
  5
192
  8
0
  6
CONTINUOUS
 62
     7
 10
1208.4493243244
 20
337.2432432432
 30
0.0
 11
1208.4493243244
 21
1195.2432432432
 31
0.0
  0
LINE
  5
193
  8
0
  6
CONTINUOUS
 62
     7
 10
1224.6493243243
 20
1334.881558374
 30
0.0
 11
1237.4493243243
 21
1334.9932622817
 31
0.0
  0
LINE
  5
194
  8
0
  6
CONTINUOUS
 62
     7
 10
1237.4493243243
 20
1195.4932242048
 30
0.0
 11
1224.6493243243
 21
1195.6049281125
 31
0.0
  0
LINE
  5
195
  8
0
  6
CONTINUOUS
 62
     7
 10
1240.4842291372
 20
1195.5461415514
 30
0.0
 11
1237.4493243243
 21
1195.4931670908
 31
0.0
  0
LINE
  5
196
  8
0
  6
CONTINUOUS
 62
     7
 10
1237.4493243243
 20
1334.9933193957
 30
0.0
 11
1240.4842291372
 21
1334.9403449351
 31
0.0
  0
LINE
  5
197
  8
0
  6
CONTINUOUS
 62
     7
 10
1240.4842291372
 20
1334.9403449351
 30
0.0
 11
1240.4842291372
 21
1195.5461415514
 31
0.0
  0
ARC
  5
198
  8
0
  6
CONTINUOUS
 62
     7
 10
1233.3204582027
 20
1335.1903068589
 30
0.0
 40
7.16813050698179
 50
358.0016173803
 51
1.9983826197
  0
ARC
  5
199
  8
0
  6
CONTINUOUS
 62
     7
 10
1221.4110693251
 20
1195.1793587506
 30
0.0
 40
19.07668615984765
 50
359.9073767023
 51
1.1016798876
  0
LINE
  5
19A
  8
0
  6
CONTINUOUS
 62
     7
 10
1242.4493243243
 20
1195.5718671994
 30
0.0
 11
1240.4842291372
 21
1195.5461415514
 31
0.0
  0
ARC
  5
19B
  8
0
  6
CONTINUOUS
 62
     7
 10
1240.6770676743
 20
1333.1557325925
 30
0.0
 40
1.795000811912987
 50
9.1306125982
 51
96.1672387772
  0
ARC
  5
19C
  8
0
  6
CONTINUOUS
 62
     7
 10
263.4875793271
 20
1195.1793587506
 30
0.0
 40
19.07668616334023
 50
178.8983201125
 51
180.0926232976
  0
LINE
  5
19D
  8
0
  6
CONTINUOUS
 62
     7
 10
244.4144195114
 20
1195.5461415514
 30
0.0
 11
247.4493243243
 21
1195.4931670908
 31
0.0
  0
LINE
  5
19E
  8
0
  6
CONTINUOUS
 62
     7
 10
247.4493243243
 20
1195.4932242048
 30
0.0
 11
260.2493243243
 21
1195.6049281125
 31
0.0
  0
LINE
  5
19F
  8
0
  6
CONTINUOUS
 62
     7
 10
260.2493243243
 20
1334.881558374
 30
0.0
 11
247.4493243243
 21
1334.9932622817
 31
0.0
  0
LINE
  5
1A0
  8
0
  6
CONTINUOUS
 62
     7
 10
247.4493243243
 20
1334.9933193957
 30
0.0
 11
244.4144195114
 21
1334.9403449351
 31
0.0
  0
LINE
  5
1A1
  8
0
  6
CONTINUOUS
 62
     7
 10
244.4144195114
 20
1334.9403449351
 30
0.0
 11
244.4144195114
 21
1195.5461415514
 31
0.0
  0
ARC
  5
1A2
  8
0
  6
CONTINUOUS
 62
     7
 10
251.578190446
 20
1335.1903068589
 30
0.0
 40
7.168130507090807
 50
178.0016173803
 51
181.9983826197
  0
ARC
  5
1A3
  8
0
  6
CONTINUOUS
 62
     7
 10
244.2215809743
 20
1333.1557325925
 30
0.0
 40
1.795000811913007
 50
83.8327612228
 51
170.8693874018
  0
LINE
  5
1A4
  8
0
  6
CONTINUOUS
 62
     7
 10
242.4493243243
 20
1195.5718671994
 30
0.0
 11
244.4144195114
 21
1195.5461415514
 31
0.0
  0
LINE
  5
1A5
  8
0
  6
CONTINUOUS
 62
     7
 10
243.4493243243
 20
337.2432432432
 30
0.0
 11
243.4493243243
 21
335.2432432432
 31
0.0
  0
LINE
  5
1A6
  8
0
  6
CONTINUOUS
 62
     7
 10
276.4493243243
 20
335.2432432432
 30
0.0
 11
276.4493243243
 21
337.2432432432
 31
0.0
  0
LINE
  5
1A7
  8
0
  6
CONTINUOUS
 62
     7
 10
1241.4493243243
 20
335.2432432433
 30
0.0
 11
1241.4493243243
 21
337.2432432433
 31
0.0
  0
LINE
  5
1A8
  8
0
  6
CONTINUOUS
 62
     7
 10
1208.4493243243
 20
337.2432432432
 30
0.0
 11
1208.4493243243
 21
335.2432432432
 31
0.0
  0
LINE
  5
1A9
  8
0
  6
CONTINUOUS
 62
     7
 10
260.2493243243
 20
1316.5432432432
 30
0.0
 11
260.4493243243
 21
1316.5432432432
 31
0.0
  0
LINE
  5
1AA
  8
0
  6
CONTINUOUS
 62
     7
 10
260.4493243243
 20
1319.9432432432
 30
0.0
 11
260.2493243243
 21
1319.9432432432
 31
0.0
  0
LINE
  5
1AB
  8
0
  6
CONTINUOUS
 62
     7
 10
260.2493243243
 20
1210.5432432432
 30
0.0
 11
260.4493243243
 21
1210.5432432432
 31
0.0
  0
LINE
  5
1AC
  8
0
  6
CONTINUOUS
 62
     7
 10
260.4493243243
 20
1213.9432432432
 30
0.0
 11
260.2493243243
 21
1213.9432432432
 31
0.0
  0
LINE
  5
1AD
  8
0
  6
CONTINUOUS
 62
     7
 10
260.4493243243
 20
1315.9432432432
 30
0.0
 11
260.2493243243
 21
1315.9432432432
 31
0.0
  0
LINE
  5
1AE
  8
0
  6
CONTINUOUS
 62
     7
 10
260.2493243243
 20
1320.5432432432
 30
0.0
 11
260.4493243243
 21
1320.5432432432
 31
0.0
  0
LINE
  5
1AF
  8
0
  6
CONTINUOUS
 62
     7
 10
260.4493243243
 20
1209.9432432432
 30
0.0
 11
260.2493243243
 21
1209.9432432432
 31
0.0
  0
LINE
  5
1B0
  8
0
  6
CONTINUOUS
 62
     7
 10
260.2493243243
 20
1214.5432432432
 30
0.0
 11
260.4493243243
 21
1214.5432432432
 31
0.0
  0
LINE
  5
1B1
  8
0
  6
CONTINUOUS
 62
     7
 10
260.2493243243
 20
1327.2432432432
 30
0.0
 11
260.4493243243
 21
1327.2432432432
 31
0.0
  0
LINE
  5
1B2
  8
0
  6
CONTINUOUS
 62
     7
 10
260.2493243243
 20
1203.2432432432
 30
0.0
 11
260.4493243243
 21
1203.2432432432
 31
0.0
  0
LINE
  5
1B3
  8
0
  6
CONTINUOUS
 62
     7
 10
260.2493243243
 20
1330.5432432432
 30
0.0
 11
260.4493243243
 21
1330.5432432432
 31
0.0
  0
LINE
  5
1B4
  8
0
  6
CONTINUOUS
 62
     7
 10
260.4493243243
 20
1331.3432432432
 30
0.0
 11
260.2493243243
 21
1331.3432432432
 31
0.0
  0
LINE
  5
1B5
  8
0
  6
CONTINUOUS
 62
     7
 10
1224.4493243243
 20
1316.5432432432
 30
0.0
 11
1224.6493243243
 21
1316.5432432432
 31
0.0
  0
LINE
  5
1B6
  8
0
  6
CONTINUOUS
 62
     7
 10
1224.6493243243
 20
1319.9432432432
 30
0.0
 11
1224.4493243243
 21
1319.9432432432
 31
0.0
  0
LINE
  5
1B7
  8
0
  6
CONTINUOUS
 62
     7
 10
1224.4493243243
 20
1210.5432432432
 30
0.0
 11
1224.6493243243
 21
1210.5432432432
 31
0.0
  0
LINE
  5
1B8
  8
0
  6
CONTINUOUS
 62
     7
 10
1224.6493243243
 20
1213.9432432432
 30
0.0
 11
1224.4493243243
 21
1213.9432432432
 31
0.0
  0
LINE
  5
1B9
  8
0
  6
CONTINUOUS
 62
     7
 10
1224.6493243243
 20
1315.9432432432
 30
0.0
 11
1224.4493243243
 21
1315.9432432432
 31
0.0
  0
LINE
  5
1BA
  8
0
  6
CONTINUOUS
 62
     7
 10
1224.4493243243
 20
1320.5432432432
 30
0.0
 11
1224.6493243243
 21
1320.5432432432
 31
0.0
  0
LINE
  5
1BB
  8
0
  6
CONTINUOUS
 62
     7
 10
1224.6493243243
 20
1209.9432432432
 30
0.0
 11
1224.4493243243
 21
1209.9432432432
 31
0.0
  0
LINE
  5
1BC
  8
0
  6
CONTINUOUS
 62
     7
 10
1224.4493243243
 20
1214.5432432432
 30
0.0
 11
1224.6493243243
 21
1214.5432432432
 31
0.0
  0
LINE
  5
1BD
  8
0
  6
CONTINUOUS
 62
     7
 10
1224.4493243243
 20
1327.2432432432
 30
0.0
 11
1224.6493243243
 21
1327.2432432432
 31
0.0
  0
LINE
  5
1BE
  8
0
  6
CONTINUOUS
 62
     7
 10
1224.4493243243
 20
1203.2432432432
 30
0.0
 11
1224.6493243243
 21
1203.2432432432
 31
0.0
  0
LINE
  5
1BF
  8
0
  6
CONTINUOUS
 62
     7
 10
1224.4493243243
 20
1330.5432432432
 30
0.0
 11
1224.6493243243
 21
1330.5432432432
 31
0.0
  0
LINE
  5
1C0
  8
0
  6
CONTINUOUS
 62
     7
 10
1224.6493243243
 20
1331.3432432432
 30
0.0
 11
1224.4493243243
 21
1331.3432432432
 31
0.0
  0
LINE
  5
1C1
  8
0
  6
CONTINUOUS
 62
     7
 10
1224.4493243243
 20
1334.7432432433
 30
0.0
 11
260.4493243243
 21
1334.7432432433
 31
0.0
  0
LINE
  5
1C2
  8
0
  6
CONTINUOUS
 62
     7
 10
260.4493243243
 20
1195.7432432433
 30
0.0
 11
1224.4493243243
 21
1195.7432432433
 31
0.0
  0
DIMENSION
  5
1C3
  8
0
  6
CONTINUOUS
 62
     7
  2
_D
 10
192.4493243243
 20
335.2432432432
 30
0.0
 11
192.4493243243
 21
411.2432432432
 31
0.0
 70
   160
  1
150
  3
SLDDIMSTYLE0
 13
260.4493243243
 23
487.2432432432
 33
0.0
 14
242.4493243243
 24
335.2432432432
 34
0.0
 50
90.0
  0
DIMENSION
  5
1CE
  8
0
  6
CONTINUOUS
 62
     7
  2
_D_1
 10
192.4493243243
 20
1195.2432432432
 30
0.0
 11
192.4493243243
 21
1120.2432432432
 31
0.0
 70
   160
  1
<>
  3
SLDDIMSTYLE0
 13
260.4493243243
 23
1045.2432432432
 33
0.0
 14
242.4493243243
 24
1195.2432432432
 34
0.0
 50
90.0
  0
DIMENSION
  5
1D8
  8
0
  6
CONTINUOUS
 62
     7
  2
_D_2
 10
192.4493243243
 20
487.2432432432
 30
0.0
 11
192.4493243243
 21
766.2432432432
 31
0.0
 70
   160
  1
X
  3
SLDDIMSTYLE0
 13
260.4493243243
 23
1045.2432432432
 33
0.0
 14
260.4493243243
 24
487.2432432432
 34
0.0
 50
90.0
  0
DIMENSION
  5
1E2
  8
0
  6
CONTINUOUS
 62
     7
  2
_D_3
 10
277.4493243243
 20
285.2432432432
 30
0.0
 11
259.9493243243
 21
285.2432432432
 31
0.0
 70
   160
  1
<>
  3
SLDDIMSTYLE1
 13
242.4493243243
 23
337.2432432432
 33
0.0
 14
277.4493243243
 24
337.2432432432
 34
0.0
  0
DIMENSION
  5
1EF
  8
0
  6
CONTINUOUS
 62
     7
  2
_D_4
 10
1242.4493243243
 20
285.2432432432
 30
0.0
 11
1224.9493243243
 21
285.2432432432
 31
0.0
 70
   160
  1
<>
  3
SLDDIMSTYLE1
 13
1207.4493243243
 23
337.2432432432
 33
0.0
 14
1242.4493243243
 24
337.2432432432
 34
0.0
  0
DIMENSION
  5
1FB
  8
0
  6
CONTINUOUS
 62
     7
  2
_D_5
 10
1242.4493243243
 20
1385.4932432432
 30
0.0
 11
742.4493243243
 21
1385.4932432432
 31
0.0
 70
   160
  1
B
  3
SLDDIMSTYLE0
 13
242.4493243243
 23
1333.4405733924
 33
0.0
 14
1242.4493243243
 24
1333.4405733924
 34
0.0
  0
INSERT
  5
218
  8
0
  6
CONTINUOUS
 62
     7
  2
SW_CENTERMARKSYMBOL_6
 10
264.4493243243
 20
1051.2432432432
 30
0.0
  0
INSERT
  5
22C
  8
0
  6
CONTINUOUS
 62
     7
  2
SW_CENTERMARKSYMBOL_7
 10
264.4493243243
 20
481.2432432432
 30
0.0
  0
INSERT
  5
240
  8
0
  6
CONTINUOUS
 62
     7
  2
SW_CENTERMARKSYMBOL_8
 10
1220.4493243243
 20
1051.2432432432
 30
0.0
  0
INSERT
  5
254
  8
0
  6
CONTINUOUS
 62
     7
  2
SW_CENTERMARKSYMBOL_9
 10
1220.4493243243
 20
493.2432432432
 30
0.0
  0
CIRCLE
  5
255
  8
0
  6
CONTINUOUS
 62
     7
 10
1220.4493243243
 20
487.2432432432
 30
0.0
 40
40.00000000000091
  0
TEXT
  5
256
  8
0
  6
CONTINUOUS
 62
     7
 10
1164.0181715234
 20
431.4463775463
 30
0.0
 40
31.75
  1
Z
 41
0.7
 11
1164.0181715234
 21
463.1963775463
 31
0.0
 73
     3
  0
LINE
  5
257
  8
0
  6
CONTINUOUS
 62
     7
 10
1688.1047297297
 20
1195.2432432432
 30
0.0
 11
1742.1047297297
 21
1195.2432432432
 31
0.0
  0
LINE
  5
258
  8
0
  6
CONTINUOUS
 62
     7
 10
1688.1047297297
 20
337.2432432432
 30
0.0
 11
1742.1047297297
 21
337.2432432432
 31
0.0
  0
LINE
  5
259
  8
0
  6
CONTINUOUS
 62
     7
 10
1687.1047297297
 20
1195.063063503
 30
0.0
 11
1687.1047297297
 21
337.2432432432
 31
0.0
  0
LINE
  5
25A
  8
0
  6
CONTINUOUS
 62
     7
 10
1687.6239423776
 20
1195.2432432432
 30
0.0
 11
1688.1047297297
 21
1195.2432432432
 31
0.0
  0
LINE
  5
25B
  8
0
  6
CONTINUOUS
 62
     7
 10
1687.1047297297
 20
337.2432432432
 30
0.0
 11
1688.1047297297
 21
337.2432432432
 31
0.0
  0
LINE
  5
25C
  8
0
  6
CONTINUOUS
 62
     7
 10
1743.1047297297
 20
1195.2432432432
 30
0.0
 11
1743.1047297297
 21
337.2432432432
 31
0.0
  0
LINE
  5
25D
  8
0
  6
CONTINUOUS
 62
     7
 10
1742.1047297297
 20
1195.2432432432
 30
0.0
 11
1743.1047297297
 21
1195.2432432432
 31
0.0
  0
LINE
  5
25E
  8
0
  6
CONTINUOUS
 62
     7
 10
1742.1047297297
 20
337.2432432432
 30
0.0
 11
1743.1047297297
 21
337.2432432432
 31
0.0
  0
LINE
  5
25F
  8
0
  6
CONTINUOUS
 62
     7
 10
1650.6026662253
 20
1255.7831688261
 30
0.0
 11
1720.6066302811
 21
1255.7831688261
 31
0.0
  0
LINE
  5
260
  8
0
  6
CONTINUOUS
 62
     7
 10
1720.6066302811
 20
1255.7831688261
 30
0.0
 11
1720.6066302811
 21
1274.7033176604
 31
0.0
  0
LINE
  5
261
  8
0
  6
CONTINUOUS
 62
     7
 10
1720.6066302811
 20
1274.7033176604
 30
0.0
 11
1650.6026662253
 21
1274.7033176604
 31
0.0
  0
LINE
  5
262
  8
0
  6
CONTINUOUS
 62
     7
 10
1650.6026662253
 20
1274.7033176604
 30
0.0
 11
1650.6026662253
 21
1255.7831688261
 31
0.0
  0
ARC
  5
263
  8
0
  6
CONTINUOUS
 62
     7
 10
1657.3134133815
 20
1263.5085155956
 30
0.0
 40
3.061988951784417
 50
261.3406748927
 51
356.2271889982
  0
ARC
  5
264
  8
0
  6
CONTINUOUS
 62
     7
 10
1656.5897336987
 20
1265.2190904156
 30
0.0
 40
2.791310838440007
 50
230.2074945124
 51
275.6685117851
  0
LINE
  5
265
  8
0
  6
CONTINUOUS
 62
     7
 10
1654.8032690834
 20
1263.0743385943
 30
0.0
 11
1653.4002436118
 21
1261.6775053372
 31
0.0
  0
ARC
  5
266
  8
0
  6
CONTINUOUS
 62
     7
 10
1656.9473576478
 20
1266.8245752154
 30
0.0
 40
0.9603139899157597
 50
81.1339369975
 51
172.1314859737
  0
ARC
  5
267
  8
0
  6
CONTINUOUS
 62
     7
 10
1657.3482082481
 20
1265.5113301755
 30
0.0
 40
2.276171264468669
 50
49.0740547027
 51
96.3777014721
  0
LINE
  5
268
  8
0
  6
CONTINUOUS
 62
     7
 10
1658.8392893949
 20
1267.2311070909
 30
0.0
 11
1660.2279750011
 21
1268.6136004825
 31
0.0
  0
POLYLINE
  5
269
  8
0
  6
CONTINUOUS
 62
     7
 66
     1
 10
0.0
 20
0.0
 30
0.0
 70
   128
  0
VERTEX
  5
36B
  8
0
  6
CONTINUOUS
 62
     7
 10
1660.2279750011
 20
1268.6136004825
 30
0.0
  0
VERTEX
  5
36C
  8
0
  6
CONTINUOUS
 62
     7
 10
1658.7052677609
 20
1269.5036261846
 30
0.0
  0
VERTEX
  5
36D
  8
0
  6
CONTINUOUS
 62
     7
 10
1657.1594067483
 20
1269.6949566997
 30
0.0
  0
SEQEND
  5
394
  8
0
  6
CONTINUOUS
 62
     7
  0
ARC
  5
26A
  8
0
  6
CONTINUOUS
 62
     7
 10
1657.380466847
 20
1263.1235037119
 30
0.0
 40
2.993930222959654
 50
3.5145088048
 51
89.2253076781
  0
POLYLINE
  5
26B
  8
0
  6
CONTINUOUS
 62
     7
 66
     1
 10
0.0
 20
0.0
 30
0.0
 70
   128
  0
VERTEX
  5
36E
  8
0
  6
CONTINUOUS
 62
     7
 10
1656.2936373719
 20
1264.2736727954
 30
0.0
  0
VERTEX
  5
36F
  8
0
  6
CONTINUOUS
 62
     7
 10
1657.3028054028
 20
1264.0453654347
 30
0.0
  0
VERTEX
  5
370
  8
0
  6
CONTINUOUS
 62
     7
 10
1657.8680894168
 20
1263.8321515973
 30
0.0
  0
VERTEX
  5
371
  8
0
  6
CONTINUOUS
 62
     7
 10
1658.02353641
 20
1263.7208737831
 30
0.0
  0
VERTEX
  5
372
  8
0
  6
CONTINUOUS
 62
     7
 10
1658.1151261898
 20
1263.6009721897
 30
0.0
  0
VERTEX
  5
373
  8
0
  6
CONTINUOUS
 62
     7
 10
1658.1585633532
 20
1263.4683144306
 30
0.0
  0
VERTEX
  5
374
  8
0
  6
CONTINUOUS
 62
     7
 10
1658.1695524973
 20
1263.3187681189
 30
0.0
  0
SEQEND
  5
395
  8
0
  6
CONTINUOUS
 62
     7
  0
POLYLINE
  5
26C
  8
0
  6
CONTINUOUS
 62
     7
 66
     1
 10
0.0
 20
0.0
 30
0.0
 70
   128
  0
VERTEX
  5
375
  8
0
  6
CONTINUOUS
 62
     7
 10
1658.1695524973
 20
1263.3187681189
 30
0.0
  0
VERTEX
  5
376
  8
0
  6
CONTINUOUS
 62
     7
 10
1658.1251735705
 20
1263.0450593755
 30
0.0
  0
VERTEX
  5
377
  8
0
  6
CONTINUOUS
 62
     7
 10
1657.9910616872
 20
1262.8135877387
 30
0.0
  0
VERTEX
  5
378
  8
0
  6
CONTINUOUS
 62
     7
 10
1657.7657541925
 20
1262.6317046383
 30
0.0
  0
VERTEX
  5
379
  8
0
  6
CONTINUOUS
 62
     7
 10
1657.3811466689
 20
1262.4910037714
 30
0.0
  0
VERTEX
  5
37A
  8
0
  6
CONTINUOUS
 62
     7
 10
1656.8654395066
 20
1262.4414290784
 30
0.0
  0
SEQEND
  5
396
  8
0
  6
CONTINUOUS
 62
     7
  0
LINE
  5
26D
  8
0
  6
CONTINUOUS
 62
     7
 10
1662.5632546799
 20
1273.9817617035
 30
0.0
 11
1662.5632546799
 21
1256.505376595
 31
0.0
  0
LINE
  5
26E
  8
0
  6
CONTINUOUS
 62
     7
 10
1651.3279701015
 20
1273.9817617035
 30
0.0
 11
1662.5632546799
 21
1273.9817617035
 31
0.0
  0
LINE
  5
26F
  8
0
  6
CONTINUOUS
 62
     7
 10
1651.3279701015
 20
1256.505376595
 30
0.0
 11
1651.3279701015
 21
1273.9817617035
 31
0.0
  0
LINE
  5
270
  8
0
  6
CONTINUOUS
 62
     7
 10
1662.5632546799
 20
1256.505376595
 30
0.0
 11
1651.3279701015
 21
1256.505376595
 31
0.0
  0
ARC
  5
271
  8
0
  6
CONTINUOUS
 62
     7
 10
1656.4659061933
 20
1266.8649916121
 30
0.0
 40
2.597038651419945
 50
180.2705121599
 51
266.1966183899
  0
ARC
  5
272
  8
0
  6
CONTINUOUS
 62
     7
 10
1656.4278183702
 20
1264.8358942146
 30
0.0
 40
4.375114766339242
 50
226.2114490821
 51
275.5690584106
  0
ARC
  5
273
  8
0
  6
CONTINUOUS
 62
     7
 10
1656.8051427091
 20
1266.7792337019
 30
0.0
 40
2.937165914557437
 50
83.0724464795
 51
178.566142297
  0
POLYLINE
  5
274
  8
0
  6
CONTINUOUS
 62
     7
 66
     1
 10
0.0
 20
0.0
 30
0.0
 70
   128
  0
VERTEX
  5
37B
  8
0
  6
CONTINUOUS
 62
     7
 10
1657.4209463397
 20
1266.1171602705
 30
0.0
  0
VERTEX
  5
37C
  8
0
  6
CONTINUOUS
 62
     7
 10
1656.6256930691
 20
1266.3234981483
 30
0.0
  0
VERTEX
  5
37D
  8
0
  6
CONTINUOUS
 62
     7
 10
1656.1904947349
 20
1266.5484657953
 30
0.0
  0
VERTEX
  5
37E
  8
0
  6
CONTINUOUS
 62
     7
 10
1656.0730092157
 20
1266.6760325246
 30
0.0
  0
VERTEX
  5
37F
  8
0
  6
CONTINUOUS
 62
     7
 10
1656.0129461263
 20
1266.8115644181
 30
0.0
  0
VERTEX
  5
380
  8
0
  6
CONTINUOUS
 62
     7
 10
1655.9960851638
 20
1266.9560423992
 30
0.0
  0
SEQEND
  5
397
  8
0
  6
CONTINUOUS
 62
     7
  0
ARC
  5
275
  8
0
  6
CONTINUOUS
 62
     7
 10
1679.8941227447
 20
1266.540249505
 30
0.0
 40
1.205846261820027
 50
40.8442412113
 51
139.1557587887
  0
ARC
  5
276
  8
0
  6
CONTINUOUS
 62
     7
 10
1684.5737452999
 20
1265.0780945549
 30
0.0
 40
6.027821540602786
 50
158.0745856719
 51
201.691937216
  0
ARC
  5
277
  8
0
  6
CONTINUOUS
 62
     7
 10
1679.8895600602
 20
1263.650851107
 30
0.0
 40
1.217231237674673
 50
221.1348753729
 51
318.8651246271
  0
ARC
  5
278
  8
0
  6
CONTINUOUS
 62
     7
 10
1675.293541166
 20
1265.0894970722
 30
0.0
 40
5.950269980121645
 50
337.8922480004
 51
22.1077519996
  0
LINE
  5
279
  8
0
  6
CONTINUOUS
 62
     7
 10
1688.158122021
 20
1269.5424326763
 30
0.0
 11
1691.8825761651
 21
1269.5424326763
 31
0.0
  0
ARC
  5
27A
  8
0
  6
CONTINUOUS
 62
     7
 10
1692.1877286207
 20
1266.9633596674
 30
0.0
 40
2.597062880744124
 50
359.0619997071
 51
96.747788285
  0
ARC
  5
27B
  8
0
  6
CONTINUOUS
 62
     7
 10
1691.8741454116
 20
1266.7812946701
 30
0.0
 40
0.7413446331898077
 50
264.9272652969
 51
1.5666546563
  0
ARC
  5
27C
  8
0
  6
CONTINUOUS
 62
     7
 10
1691.8683303775
 20
1266.8245527257
 30
0.0
 40
0.747236289990411
 50
358.236935722
 51
94.5851794722
  0
LINE
  5
27D
  8
0
  6
CONTINUOUS
 62
     7
 10
1691.8085954956
 20
1267.5693975531
 30
0.0
 11
1690.3641799578
 21
1267.5693975531
 31
0.0
  0
LINE
  5
27E
  8
0
  6
CONTINUOUS
 62
     7
 10
1690.3641799578
 20
1267.5693975531
 30
0.0
 11
1690.3641799578
 21
1266.042853695
 31
0.0
  0
ARC
  5
27F
  8
0
  6
CONTINUOUS
 62
     7
 10
1691.9699172399
 20
1263.234538528
 30
0.0
 40
0.7816397196638615
 50
267.2278556343
 51
3.4528782927
  0
LINE
  5
280
  8
0
  6
CONTINUOUS
 62
     7
 10
1690.3641799578
 20
1264.0950762893
 30
0.0
 11
1690.3641799578
 21
1262.4538135076
 31
0.0
  0
LINE
  5
281
  8
0
  6
CONTINUOUS
 62
     7
 10
1690.3641799578
 20
1262.4538135076
 30
0.0
 11
1691.9321138821
 21
1262.4538135076
 31
0.0
  0
ARC
  5
282
  8
0
  6
CONTINUOUS
 62
     7
 10
1691.9797856231
 20
1263.3249784813
 30
0.0
 40
0.7715719206867595
 50
356.7781824391
 51
93.5422885245
  0
ARC
  5
283
  8
0
  6
CONTINUOUS
 62
     7
 10
1692.2705950048
 20
1263.1120855478
 30
0.0
 40
2.638601634612599
 50
265.7386740908
 51
1.204419179
  0
ARC
  5
284
  8
0
  6
CONTINUOUS
 62
     7
 10
1692.7980777686
 20
1263.2597108775
 30
0.0
 40
2.112547249943192
 50
357.4995889595
 51
62.0825240985
  0
ARC
  5
285
  8
0
  6
CONTINUOUS
 62
     7
 10
1692.595590797
 20
1266.9629754663
 30
0.0
 40
2.189258114301759
 50
302.9758125615
 51
358.8973100822
  0
LINE
  5
286
  8
0
  6
CONTINUOUS
 62
     7
 10
1688.158122021
 20
1260.4807783844
 30
0.0
 11
1688.158122021
 21
1269.5424326763
 31
0.0
  0
LINE
  5
287
  8
0
  6
CONTINUOUS
 62
     7
 10
1692.0745348184
 20
1260.4807783844
 30
0.0
 11
1688.158122021
 21
1260.4807783844
 31
0.0
  0
LINE
  5
288
  8
0
  6
CONTINUOUS
 62
     7
 10
1691.9321138821
 20
1264.0950762893
 30
0.0
 11
1690.3641799578
 21
1264.0950762893
 31
0.0
  0
LINE
  5
289
  8
0
  6
CONTINUOUS
 62
     7
 10
1690.3641799578
 20
1266.042853695
 30
0.0
 11
1691.8085954956
 21
1266.042853695
 31
0.0
  0
LINE
  5
28A
  8
0
  6
CONTINUOUS
 62
     7
 10
1674.1342224721
 20
1273.9817617035
 30
0.0
 11
1685.7063309355
 21
1273.9817617035
 31
0.0
  0
LINE
  5
28B
  8
0
  6
CONTINUOUS
 62
     7
 10
1685.7063309355
 20
1256.505376595
 30
0.0
 11
1674.1342224721
 21
1256.505376595
 31
0.0
  0
LINE
  5
28C
  8
0
  6
CONTINUOUS
 62
     7
 10
1674.1342224721
 20
1256.505376595
 30
0.0
 11
1674.1342224721
 21
1273.9817617035
 31
0.0
  0
ARC
  5
28D
  8
0
  6
CONTINUOUS
 62
     7
 10
1679.8928191205
 20
1264.0700529321
 30
0.0
 40
3.617015057368924
 50
225.2891888127
 51
314.7108111873
  0
POLYLINE
  5
28E
  8
0
  6
CONTINUOUS
 62
     7
 66
     1
 10
0.0
 20
0.0
 30
0.0
 70
   128
  0
VERTEX
  5
381
  8
0
  6
CONTINUOUS
 62
     7
 10
1682.4374934255
 20
1261.4995606433
 30
0.0
  0
VERTEX
  5
382
  8
0
  6
CONTINUOUS
 62
     7
 10
1683.1485132086
 20
1262.6896169897
 30
0.0
  0
VERTEX
  5
383
  8
0
  6
CONTINUOUS
 62
     7
 10
1683.3487376354
 20
1264.0743354139
 30
0.0
  0
VERTEX
  5
384
  8
0
  6
CONTINUOUS
 62
     7
 10
1683.3580490035
 20
1265.5742241597
 30
0.0
  0
VERTEX
  5
385
  8
0
  6
CONTINUOUS
 62
     7
 10
1683.2124103473
 20
1267.2518814991
 30
0.0
  0
VERTEX
  5
386
  8
0
  6
CONTINUOUS
 62
     7
 10
1682.4374934255
 20
1268.6771521589
 30
0.0
  0
SEQEND
  5
398
  8
0
  6
CONTINUOUS
 62
     7
  0
LINE
  5
28F
  8
0
  6
CONTINUOUS
 62
     7
 10
1685.7063309355
 20
1273.9817617035
 30
0.0
 11
1685.7063309355
 21
1256.505376595
 31
0.0
  0
POLYLINE
  5
290
  8
0
  6
CONTINUOUS
 62
     7
 66
     1
 10
0.0
 20
0.0
 30
0.0
 70
   128
  0
VERTEX
  5
387
  8
0
  6
CONTINUOUS
 62
     7
 10
1677.3481448156
 20
1268.6771521589
 30
0.0
  0
VERTEX
  5
388
  8
0
  6
CONTINUOUS
 62
     7
 10
1676.6372683779
 20
1267.4869439881
 30
0.0
  0
VERTEX
  5
389
  8
0
  6
CONTINUOUS
 62
     7
 10
1676.4369474573
 20
1266.1022627034
 30
0.0
  0
VERTEX
  5
38A
  8
0
  6
CONTINUOUS
 62
     7
 10
1676.4276016272
 20
1264.6023652049
 30
0.0
  0
VERTEX
  5
38B
  8
0
  6
CONTINUOUS
 62
     7
 10
1676.5733628032
 20
1262.9246825127
 30
0.0
  0
VERTEX
  5
38C
  8
0
  6
CONTINUOUS
 62
     7
 10
1677.3481448156
 20
1261.4995606433
 30
0.0
  0
SEQEND
  5
399
  8
0
  6
CONTINUOUS
 62
     7
  0
ARC
  5
291
  8
0
  6
CONTINUOUS
 62
     7
 10
1679.8928191205
 20
1266.1053809072
 30
0.0
 40
3.617924085658855
 50
45.3034384243
 51
134.6965615757
  0
LINE
  5
292
  8
0
  6
CONTINUOUS
 62
     7
 10
1669.389030633
 20
1267.5817819824
 30
0.0
 11
1669.389030633
 21
1260.4814301965
 31
0.0
  0
LINE
  5
293
  8
0
  6
CONTINUOUS
 62
     7
 10
1669.389030633
 20
1260.4814301965
 30
0.0
 11
1667.2023641053
 21
1260.4814301965
 31
0.0
  0
LINE
  5
294
  8
0
  6
CONTINUOUS
 62
     7
 10
1667.2023641053
 20
1260.4814301965
 30
0.0
 11
1667.2023641053
 21
1267.5817819824
 31
0.0
  0
LINE
  5
295
  8
0
  6
CONTINUOUS
 62
     7
 10
1671.6519591725
 20
1269.5424326763
 30
0.0
 11
1671.6519591725
 21
1267.5817819824
 31
0.0
  0
LINE
  5
296
  8
0
  6
CONTINUOUS
 62
     7
 10
1671.6519591725
 20
1267.5817819824
 30
0.0
 11
1669.389030633
 21
1267.5817819824
 31
0.0
  0
LINE
  5
297
  8
0
  6
CONTINUOUS
 62
     7
 10
1664.9387837537
 20
1269.5424326763
 30
0.0
 11
1671.6519591725
 21
1269.5424326763
 31
0.0
  0
LINE
  5
298
  8
0
  6
CONTINUOUS
 62
     7
 10
1664.9387837537
 20
1267.5817819824
 30
0.0
 11
1664.9387837537
 21
1269.5424326763
 31
0.0
  0
LINE
  5
299
  8
0
  6
CONTINUOUS
 62
     7
 10
1667.2023641053
 20
1267.5817819824
 30
0.0
 11
1664.9387837537
 21
1267.5817819824
 31
0.0
  0
LINE
  5
29A
  8
0
  6
CONTINUOUS
 62
     7
 10
1708.6243690754
 20
1256.505376595
 30
0.0
 11
1697.2776246338
 21
1256.505376595
 31
0.0
  0
LINE
  5
29B
  8
0
  6
CONTINUOUS
 62
     7
 10
1704.8979594951
 20
1260.4814301965
 30
0.0
 11
1707.2184104494
 21
1260.4814301965
 31
0.0
  0
LINE
  5
29C
  8
0
  6
CONTINUOUS
 62
     7
 10
1707.2184104494
 20
1260.4814301965
 30
0.0
 11
1703.9072051551
 21
1269.5424326763
 31
0.0
  0
LINE
  5
29D
  8
0
  6
CONTINUOUS
 62
     7
 10
1703.9072051551
 20
1269.5424326763
 30
0.0
 11
1702.1805549928
 21
1269.5424326763
 31
0.0
  0
LINE
  5
29E
  8
0
  6
CONTINUOUS
 62
     7
 10
1697.2776246338
 20
1256.505376595
 30
0.0
 11
1697.2776246338
 21
1273.9817617035
 31
0.0
  0
LINE
  5
29F
  8
0
  6
CONTINUOUS
 62
     7
 10
1697.2776246338
 20
1273.9817617035
 30
0.0
 11
1708.6243690754
 21
1273.9817617035
 31
0.0
  0
LINE
  5
2A0
  8
0
  6
CONTINUOUS
 62
     7
 10
1701.6372696359
 20
1261.8280739244
 30
0.0
 11
1704.4723262162
 21
1261.8280739244
 31
0.0
  0
LINE
  5
2A1
  8
0
  6
CONTINUOUS
 62
     7
 10
1702.1805549928
 20
1269.5424326763
 30
0.0
 11
1698.8690237924
 21
1260.4814301965
 31
0.0
  0
LINE
  5
2A2
  8
0
  6
CONTINUOUS
 62
     7
 10
1698.8690237924
 20
1260.4814301965
 30
0.0
 11
1701.1901265588
 21
1260.4814301965
 31
0.0
  0
LINE
  5
2A3
  8
0
  6
CONTINUOUS
 62
     7
 10
1701.1901265588
 20
1260.4814301965
 30
0.0
 11
1701.6372696359
 21
1261.8280739244
 31
0.0
  0
LINE
  5
2A4
  8
0
  6
CONTINUOUS
 62
     7
 10
1704.4723262162
 20
1261.8280739244
 30
0.0
 11
1704.8979594951
 21
1260.4814301965
 31
0.0
  0
LINE
  5
2A5
  8
0
  6
CONTINUOUS
 62
     7
 10
1708.6243690754
 20
1273.9817617035
 30
0.0
 11
1708.6243690754
 21
1256.505376595
 31
0.0
  0
LINE
  5
2A6
  8
0
  6
CONTINUOUS
 62
     7
 10
1714.909792826
 20
1263.685738312
 30
0.0
 11
1714.909792826
 21
1265.5207522303
 31
0.0
  0
LINE
  5
2A7
  8
0
  6
CONTINUOUS
 62
     7
 10
1718.1626609404
 20
1265.5207522303
 30
0.0
 11
1718.1623350344
 21
1264.7019133226
 31
0.0
  0
LINE
  5
2A8
  8
0
  6
CONTINUOUS
 62
     7
 10
1718.1623350344
 20
1264.7019133226
 30
0.0
 11
1718.1626609404
 21
1264.7019133226
 31
0.0
  0
ARC
  5
2A9
  8
0
  6
CONTINUOUS
 62
     7
 10
1714.9437335235
 20
1263.7115288573
 30
0.0
 40
3.233997983304207
 50
267.1861173476
 51
5.533518185
  0
LINE
  5
2AA
  8
0
  6
CONTINUOUS
 62
     7
 10
1714.909792826
 20
1265.5207522303
 30
0.0
 11
1718.1626609404
 21
1265.5207522303
 31
0.0
  0
LINE
  5
2AB
  8
0
  6
CONTINUOUS
 62
     7
 10
1718.1626609404
 20
1264.7019133226
 30
0.0
 11
1718.1626609404
 21
1264.0233769621
 31
0.0
  0
ARC
  5
2AC
  8
0
  6
CONTINUOUS
 62
     7
 10
1714.8597318527
 20
1263.5747280373
 30
0.0
 40
1.181293893554659
 50
266.3714732262
 51
5.3922390922
  0
POLYLINE
  5
2AD
  8
0
  6
CONTINUOUS
 62
     7
 66
     1
 10
0.0
 20
0.0
 30
0.0
 70
   128
  0
VERTEX
  5
38D
  8
0
  6
CONTINUOUS
 62
     7
 10
1713.355221049
 20
1264.7873007032
 30
0.0
  0
VERTEX
  5
38E
  8
0
  6
CONTINUOUS
 62
     7
 10
1713.4243538662
 20
1263.7597189815
 30
0.0
  0
VERTEX
  5
38F
  8
0
  6
CONTINUOUS
 62
     7
 10
1713.6587210422
 20
1263.0102980588
 30
0.0
  0
VERTEX
  5
390
  8
0
  6
CONTINUOUS
 62
     7
 10
1713.8505091041
 20
1262.7437934927
 30
0.0
  0
VERTEX
  5
391
  8
0
  6
CONTINUOUS
 62
     7
 10
1714.0987756631
 20
1262.551503841
 30
0.0
  0
VERTEX
  5
392
  8
0
  6
CONTINUOUS
 62
     7
 10
1714.4085773549
 20
1262.4349873419
 30
0.0
  0
VERTEX
  5
393
  8
0
  6
CONTINUOUS
 62
     7
 10
1714.7849708154
 20
1262.3958022338
 30
0.0
  0
SEQEND
  5
39A
  8
0
  6
CONTINUOUS
 62
     7
  0
LINE
  5
2AE
  8
0
  6
CONTINUOUS
 62
     7
 10
1716.0357981697
 20
1263.685738312
 30
0.0
 11
1714.909792826
 21
1263.685738312
 31
0.0
  0
ARC
  5
2AF
  8
0
  6
CONTINUOUS
 62
     7
 10
1714.9440431289
 20
1266.1608535276
 30
0.0
 40
1.590652328130778
 50
85.8535185408
 51
182.7488221705
  0
ARC
  5
2B0
  8
0
  6
CONTINUOUS
 62
     7
 10
1714.7132752488
 20
1266.1201138158
 30
0.0
 40
3.581562657580111
 50
87.4810523268
 51
184.3422445406
  0
LINE
  5
2B1
  8
0
  6
CONTINUOUS
 62
     7
 10
1711.1419931796
 20
1265.0879490186
 30
0.0
 11
1711.1419931796
 21
1265.8489396054
 31
0.0
  0
ARC
  5
2B2
  8
0
  6
CONTINUOUS
 62
     7
 10
1714.5557285835
 20
1264.0162008782
 30
0.0
 40
3.542196461728714
 50
225.2735344991
 51
273.7106350771
  0
ARC
  5
2B3
  8
0
  6
CONTINUOUS
 62
     7
 10
1715.2584295397
 20
1265.7927100423
 30
0.0
 40
1.964773816745166
 50
46.2452262403
 51
95.8240062144
  0
ARC
  5
2B4
  8
0
  6
CONTINUOUS
 62
     7
 10
1715.2106121645
 20
1265.7190672378
 30
0.0
 40
3.993641702737379
 50
45.9241966693
 51
94.8827710249
  0
LINE
  5
2B5
  8
0
  6
CONTINUOUS
 62
     7
 10
1713.355221049
 20
1266.0845696672
 30
0.0
 11
1713.355221049
 21
1264.7873007032
 31
0.0
  0
LINE
  5
2B6
  8
0
  6
CONTINUOUS
 62
     7
 10
1717.9886271188
 20
1268.588179812
 30
0.0
 11
1716.6172145324
 21
1267.211878635
 31
0.0
  0
ARC
  5
2B7
  8
0
  6
CONTINUOUS
 62
     7
 10
1715.5036777856
 20
1264.2950474999
 30
0.0
 40
4.433168778743578
 50
169.6968326122
 51
219.0932480536
  0
LINE
  5
2B8
  8
0
  6
CONTINUOUS
 62
     7
 10
1703.1022172538
 20
1266.1627871151
 30
0.0
 11
1703.8941689138
 21
1263.6635767018
 31
0.0
  0
LINE
  5
2B9
  8
0
  6
CONTINUOUS
 62
     7
 10
1703.8941689138
 20
1263.6635767018
 30
0.0
 11
1702.2577947226
 21
1263.6635767018
 31
0.0
  0
LINE
  5
2BA
  8
0
  6
CONTINUOUS
 62
     7
 10
1702.2577947226
 20
1263.6635767018
 30
0.0
 11
1703.1022172538
 21
1266.1627871151
 31
0.0
  0
LINE
  5
2BB
  8
0
  6
CONTINUOUS
 62
     7
 10
1687.1047297297
 20
1194.9932432432
 30
0.0
 11
1628.3547106913
 21
1194.9932432432
 31
0.0
  0
LINE
  5
2BC
  8
0
  6
CONTINUOUS
 62
     7
 10
1628.3547106913
 20
1194.9932432432
 30
0.0
 11
1628.3546535773
 21
1194.9932432432
 31
0.0
  0
ARC
  5
2BD
  8
0
  6
CONTINUOUS
 62
     7
 10
1628.3546786146
 20
1195.4931921281
 30
0.0
 40
0.4999488833516703
 50
180.0028692966
 51
269.9971307033
  0
ARC
  5
2BE
  8
0
  6
CONTINUOUS
 62
     7
 10
1628.3546786146
 20
1334.9932943583
 30
0.0
 40
0.4999488833514429
 50
90.0028692966
 51
179.9971307034
  0
ARC
  5
2BF
  8
0
  6
CONTINUOUS
 62
     7
 10
1742.8547807767
 20
1195.4931917887
 30
0.0
 40
0.4999489514725882
 50
299.996622575
 51
359.9971695998
  0
ARC
  5
2C0
  8
0
  6
CONTINUOUS
 62
     7
 10
1742.8547808448
 20
1334.9932943583
 30
0.0
 40
0.4999488833516703
 50
0.0028692967
 51
89.9971307033
  0
LINE
  5
2C1
  8
0
  6
CONTINUOUS
 62
     7
 10
1628.3546535773
 20
1335.4932432432
 30
0.0
 11
1628.3547106913
 21
1335.4932432432
 31
0.0
  0
LINE
  5
2C2
  8
0
  6
CONTINUOUS
 62
     7
 10
1628.3547106913
 20
1335.4932432432
 30
0.0
 11
1742.8547487682
 21
1335.4932432432
 31
0.0
  0
LINE
  5
2C3
  8
0
  6
CONTINUOUS
 62
     7
 10
1742.8547487682
 20
1335.4932432432
 30
0.0
 11
1742.8548058822
 21
1335.4932432432
 31
0.0
  0
LINE
  5
2C4
  8
0
  6
CONTINUOUS
 62
     7
 10
1627.8547297297
 20
1195.4932242048
 30
0.0
 11
1627.8547297297
 21
1334.9932622817
 31
0.0
  0
LINE
  5
2C5
  8
0
  6
CONTINUOUS
 62
     7
 10
1627.8547297297
 20
1334.9932622817
 30
0.0
 11
1627.8547297297
 21
1334.9933193957
 31
0.0
  0
LINE
  5
2C6
  8
0
  6
CONTINUOUS
 62
     7
 10
1627.8547297297
 20
1195.4931670908
 30
0.0
 11
1627.8547297297
 21
1195.4932242048
 31
0.0
  0
LINE
  5
2C7
  8
0
  6
CONTINUOUS
 62
     7
 10
1743.3547297297
 20
1334.9933193957
 30
0.0
 11
1743.3547297297
 21
1334.9932622817
 31
0.0
  0
LINE
  5
2C8
  8
0
  6
CONTINUOUS
 62
     7
 10
1743.3547297297
 20
1334.9932622817
 30
0.0
 11
1743.3547297297
 21
1195.4932242048
 31
0.0
  0
LINE
  5
2C9
  8
0
  6
CONTINUOUS
 62
     7
 10
1743.3547297297
 20
1195.4932242048
 30
0.0
 11
1743.3547297297
 21
1195.4931670908
 31
0.0
  0
LINE
  5
2CA
  8
0
  6
CONTINUOUS
 62
     7
 10
1742.1047297297
 20
335.2432432433
 30
0.0
 11
1688.1047297297
 21
335.2432432433
 31
0.0
  0
LINE
  5
2CB
  8
0
  6
CONTINUOUS
 62
     7
 10
1743.1047297297
 20
337.2432432432
 30
0.0
 11
1743.1047297297
 21
335.2432432432
 31
0.0
  0
LINE
  5
2CC
  8
0
  6
CONTINUOUS
 62
     7
 10
1743.1047297297
 20
335.2432432432
 30
0.0
 11
1742.1047297297
 21
335.2432432433
 31
0.0
  0
LINE
  5
2CD
  8
0
  6
CONTINUOUS
 62
     7
 10
1687.1047297297
 20
335.2432432432
 30
0.0
 11
1687.1047297297
 21
337.2432432432
 31
0.0
  0
LINE
  5
2CE
  8
0
  6
CONTINUOUS
 62
     7
 10
1688.1047297297
 20
335.2432432433
 30
0.0
 11
1687.1047297297
 21
335.2432432432
 31
0.0
  0
LINE
  5
2CF
  8
0
  6
CONTINUOUS
 62
     7
 10
1688.1047297297
 20
1195.2432432432
 30
0.0
 11
1688.1047297297
 21
337.2432432432
 31
0.0
  0
LINE
  5
2D0
  8
0
  6
CONTINUOUS
 62
     7
 10
1742.1047297297
 20
1195.2432432432
 30
0.0
 11
1742.1047297297
 21
337.2432432432
 31
0.0
  0
LINE
  5
2D1
  8
0
  6
CONTINUOUS
 62
     7
 10
1687.2438013644
 20
1195.0719433519
 30
0.0
 11
1629.9073995806
 21
1195.0719433519
 31
0.0
  0
LINE
  5
2D2
  8
0
  6
CONTINUOUS
 62
     7
 10
1629.9073995806
 20
1195.0719433519
 30
0.0
 11
1629.9073995806
 21
1195.5718671994
 31
0.0
  0
LINE
  5
2D3
  8
0
  6
CONTINUOUS
 62
     7
 10
1629.9073995806
 20
1195.5718671994
 30
0.0
 11
1741.3020598789
 21
1195.5718671994
 31
0.0
  0
LINE
  5
2D4
  8
0
  6
CONTINUOUS
 62
     7
 10
1741.3020598789
 20
1195.2432432432
 30
0.0
 11
1741.3020598789
 21
1195.5718671994
 31
0.0
  0
ARC
  5
2D5
  8
0
  6
CONTINUOUS
 62
     7
 10
1629.5412872759
 20
1172.6855907414
 30
0.0
 40
22.38934615884252
 50
89.063053263
 51
92.9023481092
  0
ARC
  5
2D6
  8
0
  6
CONTINUOUS
 62
     7
 10
1628.407806421
 20
1195.5463199345
 30
0.0
 40
0.5001022624775343
 50
180.0204370164
 51
269.9795629836
  0
ARC
  5
2D7
  8
0
  6
CONTINUOUS
 62
     7
 10
1629.4191847522
 20
1155.7889708782
 30
0.0
 40
39.78589188930378
 50
89.2969027487
 51
92.1772115179
  0
LINE
  5
2D8
  8
0
  6
CONTINUOUS
 62
     7
 10
1741.3020598789
 20
1333.4405733924
 30
0.0
 11
1629.9073995806
 21
1333.4405733924
 31
0.0
  0
LINE
  5
2D9
  8
0
  6
CONTINUOUS
 62
     7
 10
1741.3020598789
 20
1195.5718671994
 30
0.0
 11
1741.3020598789
 21
1333.4405733924
 31
0.0
  0
LINE
  5
2DA
  8
0
  6
CONTINUOUS
 62
     7
 10
1629.9073995806
 20
1333.4405733924
 30
0.0
 11
1629.9073995806
 21
1195.5718671994
 31
0.0
  0
LINE
  5
2DB
  8
0
  6
CONTINUOUS
 62
     7
 10
1629.9073995806
 20
1333.4405733924
 30
0.0
 11
1627.9077041903
 21
1334.9403449351
 31
0.0
  0
LINE
  5
2DC
  8
0
  6
CONTINUOUS
 62
     7
 10
1627.9077041903
 20
1195.5461415514
 30
0.0
 11
1627.9077041903
 21
1334.9403449351
 31
0.0
  0
LINE
  5
2DD
  8
0
  6
CONTINUOUS
 62
     7
 10
1628.4076280379
 20
1335.4402687827
 30
0.0
 11
1629.9073995806
 21
1333.4405733924
 31
0.0
  0
LINE
  5
2DE
  8
0
  6
CONTINUOUS
 62
     7
 10
1628.4076280379
 20
1335.4402687827
 30
0.0
 11
1742.8018314216
 21
1335.4402687827
 31
0.0
  0
LINE
  5
2DF
  8
0
  6
CONTINUOUS
 62
     7
 10
1741.3020598789
 20
1333.4405733924
 30
0.0
 11
1742.8018314216
 21
1335.4402687827
 31
0.0
  0
ARC
  5
2E0
  8
0
  6
CONTINUOUS
 62
     7
 10
1628.407806421
 20
1334.940166552
 30
0.0
 40
0.5001022624777618
 50
90.0204370164
 51
179.9795629836
  0
ARC
  5
2E1
  8
0
  6
CONTINUOUS
 62
     7
 10
1742.8016530385
 20
1334.940166552
 30
0.0
 40
0.5001022624775345
 50
0.0204370164
 51
89.9795629836
  0
LINE
  5
2E2
  8
0
  6
CONTINUOUS
 62
     7
 10
1743.3017552692
 20
1334.9403449351
 30
0.0
 11
1741.3020598789
 21
1333.4405733924
 31
0.0
  0
LINE
  5
2E3
  8
0
  6
CONTINUOUS
 62
     7
 10
1743.3017552692
 20
1334.9403449351
 30
0.0
 11
1743.3017552692
 21
1195.5461415514
 31
0.0
  0
ARC
  5
2E4
  8
0
  6
CONTINUOUS
 62
     7
 10
1741.7902747073
 20
1155.7889708782
 30
0.0
 40
39.78589188930697
 50
87.8227884821
 51
90.7030972513
  0
ARC
  5
2E5
  8
0
  6
CONTINUOUS
 62
     7
 10
1742.8016657189
 20
1195.5463159174
 30
0.0
 40
0.5000895806541569
 50
307.3022362012
 51
359.9800227013
  0
LINE
  5
2E6
  8
0
  6
CONTINUOUS
 62
     7
 10
1628.4076280379
 20
1195.0462177038
 30
0.0
 11
1628.3546535773
 21
1194.9932432432
 31
0.0
  0
LINE
  5
2E7
  8
0
  6
CONTINUOUS
 62
     7
 10
1627.8547297297
 20
1195.4931670908
 30
0.0
 11
1627.9077041903
 21
1195.5461415514
 31
0.0
  0
LINE
  5
2E8
  8
0
  6
CONTINUOUS
 62
     7
 10
1628.3546535773
 20
1335.4932432432
 30
0.0
 11
1628.4076280379
 21
1335.4402687827
 31
0.0
  0
LINE
  5
2E9
  8
0
  6
CONTINUOUS
 62
     7
 10
1627.9077041903
 20
1334.9403449351
 30
0.0
 11
1627.8547297297
 21
1334.9933193957
 31
0.0
  0
LINE
  5
2EA
  8
0
  6
CONTINUOUS
 62
     7
 10
1743.3017552692
 20
1195.5461415514
 30
0.0
 11
1743.3547297297
 21
1195.4931670908
 31
0.0
  0
LINE
  5
2EB
  8
0
  6
CONTINUOUS
 62
     7
 10
1743.3547297297
 20
1334.9933193957
 30
0.0
 11
1743.3017552692
 21
1334.9403449351
 31
0.0
  0
LINE
  5
2EC
  8
0
  6
CONTINUOUS
 62
     7
 10
1742.8018314216
 20
1335.4402687827
 30
0.0
 11
1742.8548058822
 21
1335.4932432432
 31
0.0
  0
LINE
  5
2ED
  8
0
  6
CONTINUOUS
 62
     7
 10
1682.3475152086
 20
1261.2439133255
 30
0.0
 11
1682.1445710351
 21
1261.287971511
 31
0.0
  0
LINE
  5
2EE
  8
0
  6
CONTINUOUS
 62
     7
 10
1688.1047297297
 20
337.2432432433
 30
0.0
 11
1688.1047297297
 21
335.2432432433
 31
0.0
  0
LINE
  5
2EF
  8
0
  6
CONTINUOUS
 62
     7
 10
1742.1047297297
 20
335.2432432433
 30
0.0
 11
1742.1047297297
 21
337.2432432433
 31
0.0
  0
DIMENSION
  5
2F0
  8
0
  6
CONTINUOUS
 62
     7
  2
_D_6
 10
1743.1047297297
 20
285.2432432432
 30
0.0
 11
1715.1047297297
 21
285.2432432432
 31
0.0
 70
   160
  1
<>
  3
SLDDIMSTYLE1
 13
1687.1047297297
 23
337.2432432432
 33
0.0
 14
1743.1047297297
 24
337.2432432432
 34
0.0
  0
DIMENSION
  5
2FC
  8
0
  6
CONTINUOUS
 62
     7
  2
_D_7
 10
1823.3547297297
 20
335.2432432432
 30
0.0
 11
1823.3547297297
 21
835.3682432432
 31
0.0
 70
   160
  1
H
  3
SLDDIMSTYLE0
 13
1742.8547487682
 23
1335.4932432432
 33
0.0
 14
1743.1047297297
 24
335.2432432432
 34
0.0
 50
90.0
  0
DIMENSION
  5
306
  8
0
  6
CONTINUOUS
 62
     7
  2
_D_8
 10
1743.3547297297
 20
1385.4932432432
 30
0.0
 11
1685.6047297297
 21
1385.4932432432
 31
0.0
 70
   160
  1
115
  3
SLDDIMSTYLE2
 13
1627.8547297297
 23
1334.9932622817
 33
0.0
 14
1743.3547297297
 24
1334.9932622817
 34
0.0
  0
DIMENSION
  5
311
  8
0
  6
CONTINUOUS
 62
     7
  2
_D_9
 10
1577.8547297297
 20
1194.9932432432
 30
0.0
 11
1577.8547297297
 21
1265.2432432432
 31
0.0
 70
   160
  1
140
  3
SLDDIMSTYLE2
 13
1628.3547106913
 23
1335.4932432432
 33
0.0
 14
1628.3547106913
 24
1194.9932432432
 34
0.0
 50
90.0
  0
ARC
  5
31B
  8
0
  6
CONTINUOUS
 62
     7
 10
729.7350767357
 20
689.3263013174
 30
0.0
 40
199.9993417138604
 50
56.6328883864
 51
108.9656569434
  0
ARC
  5
31C
  8
0
  6
CONTINUOUS
 62
     7
 10
729.7348543666
 20
689.3265902699
 30
0.0
 40
200.0009339512734
 50
251.0345671729
 51
303.3668874973
  0
ARC
  5
31D
  8
0
  6
CONTINUOUS
 62
     7
 10
729.7350028488
 20
659.3255794762
 30
0.0
 40
19.99996602549148
 50
179.9997865562
 51
0.0002134438
  0
LINE
  5
31E
  8
0
  6
CONTINUOUS
 62
     7
 10
749.7349688741
 20
659.325653982
 30
0.0
 11
749.7349688741
 21
719.3256265638
 31
0.0
  0
ARC
  5
31F
  8
0
  6
CONTINUOUS
 62
     7
 10
729.7350028488
 20
719.3257010696
 30
0.0
 40
19.99996602549148
 50
359.9997865562
 51
180.0002134438
  0
LINE
  5
320
  8
0
  6
CONTINUOUS
 62
     7
 10
709.7350368234
 20
659.325653982
 30
0.0
 11
709.7350368234
 21
719.3256265638
 31
0.0
  0
LINE
  5
321
  8
0
  6
CONTINUOUS
 62
     7
 10
839.7350022527
 20
522.2926384924
 30
0.0
 11
839.7350022527
 21
856.3584930418
 31
0.0
  0
LINE
  5
322
  8
0
  6
CONTINUOUS
 62
     7
 10
664.7350201341
 20
500.1827425478
 30
0.0
 11
664.7350201341
 21
878.4683889864
 31
0.0
  0
LINE
  5
323
  8
0
  6
CONTINUOUS
 62
     7
 10
834.7350666257
 20
519.105280113
 30
0.0
 11
834.7350666257
 21
859.5460004328
 31
0.0
  0
LINE
  5
324
  8
0
  6
CONTINUOUS
 62
     7
 10
669.7349557611
 20
498.5378033636
 30
0.0
 11
669.7349557611
 21
880.1134771822
 31
0.0
  0
DIMENSION
  5
325
  8
0
  6
CONTINUOUS
 62
     7
  2
_D_10
 10
664.7350022527
 20
419.9286725106
 30
0.0
 11
697.2350022527
 21
419.9286725106
 31
0.0
 70
   160
  1
<>
  3
SLDDIMSTYLE3
 13
729.7350022527
 23
686.8256194113
 33
0.0
 14
664.7350022527
 24
500.1827425478
 34
0.0
  0
DIMENSION
  5
330
  8
0
  6
CONTINUOUS
 62
     7
  2
_D_11
 10
729.7350022527
 20
419.9286725106
 30
0.0
 11
784.7350022527
 21
419.9286725106
 31
0.0
 70
   160
  1
<>
  3
SLDDIMSTYLE3
 13
839.7350022527
 23
522.2926384924
 33
0.0
 14
729.7350022527
 24
686.8256194113
 34
0.0
  0
DIMENSION
  5
33A
  8
0
  6
CONTINUOUS
 62
     7
  2
_D_12
 10
749.7350022527
 20
810.2065069761
 30
0.0
 11
729.7350022527
 21
810.2065069761
 31
0.0
 70
   160
  1
<>
  3
SLDDIMSTYLE4
 13
709.7350022527
 23
719.3256194113
 33
0.0
 14
749.7350022527
 24
719.3256194113
 34
0.0
  0
DIMENSION
  5
347
  8
0
  6
CONTINUOUS
 62
     7
  2
_D_13
 10
614.7350201341
 20
659.3256194113
 30
0.0
 11
614.7350201341
 21
689.3256194113
 31
0.0
 70
   160
  1
<>
  3
SLDDIMSTYLE3
 13
697.2350022527
 23
719.3256194113
 33
0.0
 14
729.7350022527
 24
659.3256194113
 34
0.0
 50
90.0
  0
INSERT
  5
356
  8
0
  6
CONTINUOUS
 62
     7
  2
SW_NOTE_10
 10
660.0613914015
 20
1026.6543760509
 30
0.0
  0
INSERT
  5
36A
  8
0
  6
CONTINUOUS
 62
     7
  2
SW_CENTERMARKSYMBOL_10
 10
729.7349283429
 20
719.3256265638
 30
0.0
  0
ENDSEC
  0
EOF
